Панель пользователя
Регистрация

Воспользуйтесь социальными сетями для входа на https://freerutor.com

vk odnoklassniki facebook mailru yandex google
Популярное
Счетчик
Голосуй за нас
VIP на сайте
Популярное
Товары интернет магазина
загрузка...

Робинзон Крузо: Очень обитаемый остров (2016) BDRip-AVC | Лицензия

Робинзон Крузо: Очень обитаемый остров (2016) BDRip-AVC | Лицензия
Участники торрент обмена
Сидов Пиров Скачали
11 0 469
Характеристика
Размер Файлы
1.67 GB
Релиз группа
Поделиться раздачей
Мультфильмы
Наименование: Робинзон Крузо: Очень обитаемый остров
Оригинальное наименование: Robinson Crusoe
Категория: мультфильм, комедия, приключения
Произведено: Франция, Бельгия
Режиссер постановщик: Винсент Кестелут, Бен Стассен
В главных ролях: Рон Аллен (Bosun), Джордж Бэббит (Sleeping Sailor), Лайла Берзиньш (Rosie), Илька Бессин (Tapir Rosie, озвучка), Джои Камен (Scrubby), Джефф Дусетте (Mal), Джефф Дусетте (Pango), Сэнди Фокс (Epi), Дитер Халлерворден (Ziegenbock Zottel, озвучка), Кайл Херберт (Tom Cat), Мэриев Херингтон (Kiki), Дэвид Ховард (Tuesday)
Краткое описание: Все знают историю о Робинзоне Крузо, попавшем на необитаемый остров. Однако, как же можно назвать его необитаемым, если он населен разнообразными веселыми животными и птицами? Они очень удивились, впервые встретив это странное существо, и даже приняли его за морское чудовище. Попугаю по кличке Вторник и его друзьям — хамелеону, тапиру и другим обитателям острова предстоит поближе познакомиться с незнакомым зверем «человеком» и вместе с ним пережить массу опасных и веселых приключений.
  • Видео данные: MPEG-4 AVC, 2223 Кбит/с, 1024x428
    Аудио данные: Русский (AC3, 6 ch, 448 Кбит/с)
    Перевод: Дубляж - [Лицензия] [Blu-ray RUS]
    Продолжительность: 01:29:37
  • Робинзон Крузо: Очень обитаемый остров (2016) BDRip-AVC | Лицензия Робинзон Крузо: Очень обитаемый остров (2016) BDRip-AVC | Лицензия Робинзон Крузо: Очень обитаемый остров (2016) BDRip-AVC | Лицензия
  • General
    Unique ID : 235970578597041105196527849804070167508 (0xB18647C3CD28D2BD938076DE6B8CA3D4)
    Название : D:\download\Robinson Crusoe. 2016. BDRip-AVC by schultz R.G.Resident.mkv
    Формат : Matroska
    Формат version : Version 4 / Version 2
    Размер файла : 1.67 GiB
    Длительность : 1h 29mn
    Общий Битрейт : 2 672 Kbps
    Encoded date : UTC 2016-07-24 17:01:00
    Создано приложением : mkvmerge v8.9.0 ('Father Daughter') 64bit
    Writing library : libebml v1.3.3 + libmatroska v1.4.4
    Длительность : 01:29:37.824000000
    NUMBER_OF_FRAMES : 168057
    NUMBER_OF_BYTES : 301158144
    _STATISTICS_WRITING_APP : mkvmerge v8.9.0 ('Father Daughter') 64bit
    _STATISTICS_WRITING_DATE_UTC : 2016-07-24 17:01:00
    _STATISTICS_TAGS : BPS Длительность NUMBER_OF_FRAMES NUMBER_OF_BYTES

    Video
    ID : 1
    Формат : AVC
    Формат/Info : Advanced Video Кодек
    Формат profile : High@L4.1
    Формат настройки, CABAC : Yes
    Формат настройки, ReFrames : 12 frames
    Кодек ID : V_MPEG4/ISO/AVC
    Длительность : 1h 29mn
    Битрейт : 2 223 Kbps
    Width : 1 024 пикселей
    Высота : 428 пикселей
    Соотношение кадра : 2.40:1
    Частота кадров : 24.000 fps
    Цветопередача : YUV
    Chroma subsampling : 4:2:0
    Разрядность : 8 bits
    Тип сканирования : Progressive
    Bits/(Pixel*Frame) : 0.211
    Размер потока : 1.36 GiB (81%)
    Writing library : x264 core 146 r2538 121396c
    Encoding настройки : cabac=1 / ref=12 / deblock=1:-3:-3 / analyse=0x3:0x113 / me=umh / subme=11 / psy=1 / psy_rd=1.00:0.00 / mixed_ref=1 / me_range=48 / chroma_me=1 / trellis=2 / 8x8dct=1 / cqm=0 / deadzone=21,11 / fast_pskip=0 / chroma_qp_offset=-2 / threads=12 / lookahead_threads=3 / sliced_threads=0 / nr=0 / decimate=0 / interlaced=0 / bluray_compat=0 / constrained_intra=0 / bframes=13 / b_pyramid=2 / b_adapt=2 / b_bias=0 / direct=3 / weightb=1 / open_gop=0 / weightp=2 / keyint=240 / keyint_min=25 / scenecut=40 / intra_refresh=0 / rc_lookahead=40 / rc=2pass / mbtree=1 / bitrate=2223 / ratetol=1.0 / qcomp=0.60 / qpmin=0 / qpmax=69 / qpstep=4 / cplxblur=20.0 / qblur=0.5 / vbv_maxrate=14000 / vbv_bufsize=14000 / nal_hrd=none / filler=0 / ip_ratio=1.40 / aq=1:1.00
    Язык : English
    Default : Yes
    Forced : No
    Длительность : 01:29:37.796000000
    NUMBER_OF_FRAMES : 129067
    NUMBER_OF_BYTES : 1493981709
    _STATISTICS_WRITING_APP : mkvmerge v8.9.0 ('Father Daughter') 64bit
    _STATISTICS_WRITING_DATE_UTC : 2016-07-24 17:01:00
    _STATISTICS_TAGS : BPS Длительность NUMBER_OF_FRAMES NUMBER_OF_BYTES

    Audio
    ID : 2
    Формат : AC-3
    Формат/Info : Audio Coding 3
    Расширение режима : CM (complete main)
    Кодек ID : A_AC3
    Длительность : 1h 29mn
    Битрейт mode : Constant
    Битрейт : 448 Kbps
    Channel(s) : 6 каналов
    Channel positions : Front: L C R, Side: L R, LFE
    Частота : 48.0 KHz
    Разрядность : 16 bits
    Режим сжатия : Lossy
    Размер потока : 287 MiB (17%)
    Язык : Russian
    Default : Yes
    Forced : No
10.0 из 10
голосов: 2
/10
/10
schultz 24-07-2016, 20:34
Информация
Посетители, находящиеся в группе Гости, не могут оставлять комментарии к данной публикации.