Панель пользователя
Регистрация

Воспользуйтесь социальными сетями для входа на https://freerutor.com

vk odnoklassniki facebook mailru yandex google
Популярное
Счетчик
Голосуй за нас
VIP на сайте
Популярное
Товары интернет магазина
загрузка...

Любовь и дружба (2016) BDRip 720p | iTunes

Любовь и дружба (2016) BDRip 720p | iTunes
Участники торрент обмена
Сидов Пиров Скачали
57 3 4629
Характеристика
Размер Файлы
4.13 GB
Поделиться раздачей
Фильмы (720,1080,Blu-Ray)
Наименование: Любовь и дружба
Оригинальное наименование: Love & Friendship
Произведено: Ирландия, Нидерланды, Франция, США, Великобритания
Категория: драма, мелодрама, комедия
Режиссер постановщик: Уит Стиллман
В главных ролях: Кейт Бекинсейл, Морфидд Кларк, Том Беннетт, Дженн Мюррэй, Лохлэйнн О Меарайн, Софи Радермахер, Хлоя Севиньи, Стивен Фрай, Джордан Уоллер, Росс Мак Махон
Краткое описание: Прекрасная молодая вдова леди Сьюзан приезжает в имение семьи покойного мужа переждать, пока в высшем обществе перестанут судачить о ее похождениях, и придумать, как поправить свое финансовое положение. Не теряя времени даром, она решает подыскать богатого мужа себе и своей юной дочери. В ход идут не только красота и обаяние, но и острый насмешливый ум и невероятный талант плести интриги.
  • Видео данные: MPEG-4 AVC,5189 Kbps, 1280x692
    Аудио данные:Russian: AC3, 384 kb/s (6 ch) / English: AC3, 640 kb/s (6 ch)
    Перевод: Дублированный (iTunes)
    Субтитры: English
    Продолжительность: 01:33:18
  • Любовь и дружба (2016) BDRip 720p | iTunes Любовь и дружба (2016) BDRip 720p | iTunes Любовь и дружба (2016) BDRip 720p | iTunes
  • Общее
    Уникальный идентификатор : 229732117289736680636824091442095661232 (0xACD4CBE00E6C6331A14F84A021FD20B0)
    Полное имя : C:\Users\Pavel\Downloads\Ly60v.1.Druzhba.2016.D.BDRip.720p.mkv
    Формат : Matroska
    Версия формата : Version 4 / Version 2
    Размер файла : 4,13 Гбайт
    Продолжительность : 1 ч. 33 м.
    Общий поток : 6340 Кбит/сек
    Название фильма : Love.And.Friendship.2016.1080p.BluRay.DTS.x264-HDMaNiAcS
    Дата кодирования : UTC 2016-09-14 19:59:22
    Программа кодирования : mkvmerge v8.3.0 ('Over the Horizon') 64bit
    Библиотека кодирования : libebml v1.3.1 + libmatroska v1.4.2

    Видео
    Идентификатор : 1
    Формат : AVC
    Формат/Информация : Advanced Video Codec
    Профиль формата : High@L4.1
    Параметр CABAC формата : Да
    Параметр ReFrames формата : 9 кадров
    Идентификатор кодека : V_MPEG4/ISO/AVC
    Продолжительность : 1 ч. 33 м.
    Битрейт : 5313 Кбит/сек
    Ширина : 1280 пикселей
    Высота : 692 пикселя
    Соотношение сторон : 1,85:1
    Режим частоты кадров : Постоянный
    Частота кадров : 23,976 (24000/1001) кадра/сек
    Цветовое пространство : YUV
    Субдискретизация насыщенности : 4:2:0
    Битовая глубина : 8 бит
    Тип развёртки : Прогрессивная
    Бит/(Пиксели*Кадры) : 0.250
    Размер потока : 3,46 Гбайт (84%)
    Библиотека кодирования : x264 core 148 r2705+54 9f484c1 t_mod_Custom [8-bit@all X86_64]
    Настройки программы : cabac=1 / ref=9 / deblock=1:-3:-3 / analyse=0x3:0x133 / me=umh / subme=10 / psy=1 / fade_compensate=0.00 / psy_rd=1.00:0.00 / mixed_ref=1 / me_range=32 / chroma_me=1 / trellis=2 / 8x8dct=1 / cqm=0 / deadzone=21,11 / fast_pskip=0 / chroma_qp_offset=-2 / threads=8 / lookahead_threads=1 / sliced_threads=0 / nr=0 / decimate=0 / interlaced=0 / bluray_compat=0 / constrained_intra=0 / fgo=0 / bframes=8 / b_pyramid=2 / b_adapt=2 / b_bias=0 / direct=3 / weightb=1 / open_gop=0 / weightp=2 / keyint=250 / keyint_min=23 / scenecut=40 / intra_refresh=0 / rc_lookahead=150 / rc=crf / mbtree=0 / crf=16.1000 / qcomp=0.60 / qpmin=0:0:0 / qpmax=69:69:69 / qpstep=4 / vbv_maxrate=62500 / vbv_bufsize=78125 / crf_max=0.0 / nal_hrd=none / filler=0 / ip_ratio=1.30 / pb_ratio=1.20 / aq=1:0.80 / aq-sensitivity=10.00 / aq-factor=1.00:1.00:1.00 / aq2=0 / aq3=0
    Язык : English
    Default : Да
    Forced : Нет
    Цветовой диапазон : Limited
    Коэффициенты матрицы : BT.709

    Аудио #1
    Идентификатор : 2
    Формат : AC-3
    Формат/Информация : Audio Coding 3
    Расширение режима : CM (complete main)
    Параметр Endianness формата : Big
    Идентификатор кодека : A_AC3
    Продолжительность : 1 ч. 33 м.
    Вид битрейта : Постоянный
    Битрейт : 384 Кбит/сек
    Каналы : 6 каналов
    Расположение каналов : Front: L C R, Side: L R, LFE
    Частота : 48,0 КГц
    Частота кадров : 31,250 кадров/сек (1536 spf)
    Метод сжатия : С потерями
    Размер потока : 256 Мбайт (6%)
    Язык : Russian
    Default : Да
    Forced : Нет

    Аудио #2
    Идентификатор : 3
    Формат : AC-3
    Формат/Информация : Audio Coding 3
    Расширение режима : CM (complete main)
    Параметр Endianness формата : Big
    Идентификатор кодека : A_AC3
    Продолжительность : 1 ч. 33 м.
    Вид битрейта : Постоянный
    Битрейт : 640 Кбит/сек
    Каналы : 6 каналов
    Расположение каналов : Front: L C R, Side: L R, LFE
    Частота : 48,0 КГц
    Частота кадров : 31,250 кадров/сек (1536 spf)
    Метод сжатия : С потерями
    Размер потока : 427 Мбайт (10%)
    Язык : English
    Default : Нет
    Forced : Нет

    Текст #1
    Идентификатор : 4
    Формат : UTF-8
    Идентификатор кодека : S_TEXT/UTF8
    Идентификатор кодека/Информация : UTF-8 Plain Text
    Продолжительность : 1 ч. 29 м.
    Битрейт : 91 бит/сек
    Count of elements : 1470
    Размер потока : 59,8 Кбайт (0%)
    Язык : English
    Default : Нет
    Forced : Нет

    Текст #2
    Идентификатор : 5
    Формат : UTF-8
    Идентификатор кодека : S_TEXT/UTF8
    Идентификатор кодека/Информация : UTF-8 Plain Text
    Продолжительность : 1 ч. 29 м.
    Битрейт : 95 бит/сек
    Count of elements : 1549
    Размер потока : 62,6 Кбайт (0%)
    Заголовок : SDH
    Язык : English
    Default : Нет
    Forced : Нет

    Меню
    00:00:00.000 : en:Chapter 1
    00:06:18.962 : en:Chapter 2
    00:14:33.581 : en:Chapter 3
    00:22:33.686 : en:Chapter 4
    00:29:48.620 : en:Chapter 5
    00:34:52.382 : en:Chapter 6
    00:41:29.237 : en:Chapter 7
    00:47:13.956 : en:Chapter 8
    00:51:01.225 : en:Chapter 9
    00:53:26.745 : en:Chapter 10
    00:59:29.399 : en:Chapter 11
    01:04:45.131 : en:Chapter 12
    01:07:36.761 : en:Chapter 13
    01:13:18.769 : en:Chapter 14
    01:19:51.036 : en:Chapter 15
    01:25:54.483 : en:Chapter 16
6.0 из 10
голосов: 7
/10
/10
SSKdrago 15-09-2016, 01:40
Информация
Посетители, находящиеся в группе Гости, не могут оставлять комментарии к данной публикации.