Панель пользователя
Регистрация

Воспользуйтесь социальными сетями для входа на https://freerutor.com

vk odnoklassniki facebook mailru yandex google
Популярное
Счетчик
Голосуй за нас
VIP на сайте
Популярное
Товары интернет магазина
загрузка...

Вавилон (1 сезон: 00 серия из 6) (2014) HDTVRip

Вавилон (1 сезон: 00  серия из 6) (2014) HDTVRip
Участники торрент обмена
Сидов Пиров Скачали
0 0 90
Характеристика
Размер Файлы
944.54 MB
Поделиться раздачей
Зарубежные сериалы
Наименование: Вавилон
Оригинальное наименование: Babylon
Категория: Драма, комедия
Произведено: Великобритания
Режиссер постановщик: Джон С. Бейрд, Салли Эль Хосейни, Дэнни Бойл
В главных ролях: Брит Марлинг, Джеймс Несбитт, Берти Карвел, Пэтерсон Джозеф, Джонни Свит, Элла Смит, Ник Блад, Эндрю Брук, Каван Клеркин, Адам Дикон
Краткое описание: Американский специалист по связям с общественностью Лиз Гарвей приезжает в Лондон с целью улучшить резко падающий имидж британской полиции. Но в работе возникают трудности.
  • Видео данные: XviD, ~ 1500 Кбит/с, 720x400
    Аудио данные: Русский, английский (AC3, 2 ch, 192 Кбит/с)
    Перевод: Любительский двухголосый
    Продолжительность: 1 x ~ 01:15:00
    Субтитры: Русские (Полные)
  • Вавилон (1 сезон: 00  серия из 6) (2014) HDTVRip Вавилон (1 сезон: 00  серия из 6) (2014) HDTVRip Вавилон (1 сезон: 00  серия из 6) (2014) HDTVRip
  • Раздача ведётся путём добавления новых серий; при каждом добавлении создаётся новый торрент. Чтобы начать докачку новой серии, пользователям необходимо сделать следующее:
    - Остановить скачивание.
    - Удалить старый торрент у себя из клиента (старые серии удалять не надо).
    - Скачать новый торрент и запустить его у себя в клиенте вместо старого, при этом указать клиенту путь в старую папку куда и должно происходить скачивание новых серий.

    Ваш клиент при этом должен произвести хеширование (проверку) старой папки (если не производит сам - помогите ему сделать это), и будет докачивать только те серии которых у вас ещё нет. Старые серии при этом не удаляются, а продолжают раздаваться!
    Если вы уже удалили старые серии, то предотвратить повторную закачку старых серий можно, отжав галочку в соответствующих местах при запуске нового торрента. По возможности, желательно не удалять старые серии как можно дольше, чтобы релизер не столько продолжал раздавать старые серии, а смог сконцентрироваться на новых.
  • General
    Complete name : W:\Торка на W\Babylon\Babylon.Season.1.SNK-TV\Babylon.S01E00.HDTVRip.SNK-TV.avi
    Format : AVI
    Format/Info : Audio Video Interleave
    File size : 944 MiB
    Duration : 1h 13mn
    Overall bit rate : 1 790 Kbps
    Writing application : VirtualDubModRus 1.5.10.2 (build 2542/release)
    Writing library : VirtualDubMod build 2542/release

    Video
    ID : 0
    Format : MPEG-4 Visual
    Format profile : Simple@L3
    Format settings, BVOP : No
    Format settings, QPel : No
    Format settings, GMC : No warppoints
    Format settings, Matrix : Default (H.263)
    Codec ID : XVID
    Codec ID/Hint : XviD
    Duration : 1h 13mn
    Bit rate : 1 392 Kbps
    Width : 720 pixels
    Height : 400 pixels
    Display aspect ratio : 16:9
    Frame rate : 25.000 fps
    Color space : YUV
    Chroma subsampling : 4:2:0
    Bit depth : 8 bits
    Scan type : Progressive
    Compression mode : Lossy
    Bits/(Pixel*Frame) : 0.193
    Stream size : 734 MiB (78%)
    Writing library : XviD 67

    Audio #1
    ID : 1
    Format : AC-3
    Format/Info : Audio Coding 3
    Mode extension : CM (complete main)
    Format settings, Endianness : Big
    Codec ID : 2000
    Duration : 1h 13mn
    Bit rate mode : Constant
    Bit rate : 192 Kbps
    Channel(s) : 2 channels
    Channel positions : Front: L R
    Sampling rate : 48.0 KHz
    Compression mode : Lossy
    Stream size : 101 MiB (11%)
    Alignment : Split accross interleaves
    Interleave, duration : 40 ms (1.00 video frame)
    Interleave, preload duration : 500 ms

    Audio #2
    ID : 2
    Format : AC-3
    Format/Info : Audio Coding 3
    Mode extension : CM (complete main)
    Format settings, Endianness : Big
    Codec ID : 2000
    Duration : 1h 13mn
    Bit rate mode : Constant
    Bit rate : 192 Kbps
    Channel(s) : 2 channels
    Channel positions : Front: L R
    Sampling rate : 48.0 KHz
    Compression mode : Lossy
    Stream size : 101 MiB (11%)
    Alignment : Split accross interleaves
    Interleave, duration : 40 ms (1.00 video frame)
    Interleave, preload duration : 500 ms
8.0 из 10
голосов: 1
/10
/10
bond74 20-07-2016, 19:47
Информация
Посетители, находящиеся в группе Гости, не могут оставлять комментарии к данной публикации.