Панель пользователя
Регистрация

Воспользуйтесь социальными сетями для входа на https://freerutor.com

vk odnoklassniki facebook mailru yandex google
Популярное
Счетчик
Голосуй за нас
VIP на сайте
Популярное
Товары интернет магазина
загрузка...

Кловерфилд, 10 (2016) BD-Remux 1080p | Лицензия

Кловерфилд, 10 (2016) BD-Remux 1080p | Лицензия
Участники торрент обмена
Сидов Пиров Скачали
1 0 193
Характеристика
Размер Файлы
22.23 GB
Релиз группа
Поделиться раздачей
Фильмы (720,1080,Blu-Ray)
Наименование: Кловерфилд, 10
Оригинальное наименование: 10 Cloverfield Lane
Категория: Ужасы, фантастика, триллер, драма, детектив
Произведено: США / Bad Robot, Paramount Pictures, Spectrum Effects
Режиссер постановщик: Дэн Трактенберг
В главных ролях: Джон Гудман, Мэри Элизабет Уинстэд, Джон Галлахер мл., Дуглас М. Гриффин, Сюзанн Крайер, Брэдли Купер, Сумали Монтано, Фрэнк Моттек, Синди Хоган, Мат Ваиро
Краткое описание: Проснувшись после автомобильной аварии, девушка оказывается в подвале человека, утверждающего, что он спас ей жизнь от химической атаки, которая сделала мир за пределами бункера непригодным для жизни.
  • Видео данные: MPEG-4 AVC, 25.4 Mбит/с, 1920x1080
    Аудио данные: Русский (AC3, 6 ch, 640 Кбит/с), английский (TrueHD, 8 ch, 4614 Кбит/с)
    Перевод: Дублированный [Лицензия]
    Субтитры: Русские, английские
    Продолжительность: 01:43:18
  • Кловерфилд, 10 (2016) BD-Remux 1080p | Лицензия Кловерфилд, 10 (2016) BD-Remux 1080p | Лицензия Кловерфилд, 10 (2016) BD-Remux 1080p | Лицензия
  • General
    Unique ID : 221910117434284634662530897526948285376 (0xA6F25581DEDDDEC2A3DE5A644ABACBC0)
    Complete name : F:Video10.Cloverfield.Lane.2016.D.BDREMUX.1080p.ExKinoRay.mkv
    Format : Matroska
    Format version : Version 4 / Version 2
    File size : 22.2 GiB
    Duration : 1h 43mn
    Overall bit rate mode : Variable
    Overall bit rate : 30.7 Mbps
    Movie name : 10.Cloverfield.Lane.2016.D.BDREMUX.1080p.ExKinoRay
    Encoded date : UTC 2016-07-08 08:15:53
    Writing application : mkvmerge v8.3.0 ('Over the Horizon') 64bit
    Writing library : libebml v1.3.1 + libmatroska v1.4.2

    Video
    ID : 1
    Format : AVC
    Format/Info : Advanced Video Codec
    Format profile : High@L4.1
    Format settings, CABAC : Yes
    Format settings, ReFrames : 4 frames
    Codec ID : V_MPEG4/ISO/AVC
    Duration : 1h 43mn
    Bit rate mode : Variable
    Bit rate : 25.4 Mbps
    Maximum bit rate : 28.0 Mbps
    Width : 1 920 pixels
    Height : 1 080 pixels
    Display aspect ratio : 16:9
    Frame rate mode : Constant
    Frame rate : 23.976 (24000/1001) fps
    Color space : YUV
    Chroma subsampling : 4:2:0
    Bit depth : 8 bits
    Scan type : Progressive
    Bits/(Pixel*Frame) : 0.511
    Stream size : 18.4 GiB (83%)
    Title : 10.Cloverfield.Lane.2016.BDREMUX.1080p.ExKinoRay.***selezen***
    Language : English
    Default : Yes
    Forced : No

    Audio #1
    ID : 2
    Format : AC-3
    Format/Info : Audio Coding 3
    Mode extension : CM (complete main)
    Format settings, Endianness : Big
    Codec ID : A_AC3
    Duration : 1h 43mn
    Bit rate mode : Constant
    Bit rate : 640 Kbps
    Channel(s) : 6 channels
    Channel positions : Front: L C R, Side: L R, LFE
    Sampling rate : 48.0 KHz
    Frame rate : 31.250 fps (1536 spf)
    Compression mode : Lossy
    Stream size : 474 MiB (2%)
    Title : DUB [License Blu-Ray CEE]
    Language : Russian
    Default : Yes
    Forced : No

    Audio #2
    ID : 3
    Format : Atmos / TrueHD
    Codec ID : A_TRUEHD
    Duration : 1h 43mn
    Bit rate mode : Variable
    Bit rate : 4 614 Kbps
    Maximum bit rate : 8 544 Kbps
    Channel(s) : Object Based / 8 channels
    Channel positions : Object Based / Front: L C R, Side: L R, Back: L R, LFE
    Sampling rate : / 48.0 KHz
    Frame rate : 1 200.000 fps (40 spf)
    Compression mode : Lossless
    Stream size : 3.34 GiB (15%)
    Title : Original
    Language : English
    Default : No
    Forced : No

    Text #1
    ID : 4
    Format : UTF-8
    Codec ID : S_TEXT/UTF8
    Codec ID/Info : UTF-8 Plain Text
    Duration : 1h 32mn
    Bit rate : 53 bps
    Count of elements : 748
    Stream size : 36.6 KiB (0%)
    Title : Full
    Language : Russian
    Default : No
    Forced : No

    Text #2
    ID : 5
    Format : UTF-8
    Codec ID : S_TEXT/UTF8
    Codec ID/Info : UTF-8 Plain Text
    Duration : 1h 32mn
    Bit rate : 36 bps
    Count of elements : 843
    Stream size : 24.8 KiB (0%)
    Title : Full
    Language : English
    Default : No
    Forced : No

    Text #3
    ID : 6
    Format : UTF-8
    Codec ID : S_TEXT/UTF8
    Codec ID/Info : UTF-8 Plain Text
    Duration : 1h 36mn
    Bit rate : 40 bps
    Count of elements : 1063
    Stream size : 28.5 KiB (0%)
    Title : SDH
    Language : English
    Default : No
    Forced : No

    Menu
    00:00:00.000 : en:Chapter 1
    00:05:55.605 : en:Chapter 2
    00:14:52.517 : en:Chapter 3
    00:19:18.157 : en:Chapter 4
    00:24:11.992 : en:Chapter 5
    00:32:21.940 : en:Chapter 6
    00:42:59.243 : en:Chapter 7
    00:47:47.740 : en:Chapter 8
    00:53:37.089 : en:Chapter 9
    00:57:00.626 : en:Chapter 10
    01:03:10.745 : en:Chapter 11
    01:11:20.193 : en:Chapter 12
    01:15:49.420 : en:Chapter 13
    01:24:21.265 : en:Chapter 14
    01:28:19.085 : en:Chapter 15
    01:37:31.512 : en:Chapter 16
10.0 из 10
голосов: 1
/10
/10
grab777 17-07-2016, 06:24
Информация
Посетители, находящиеся в группе Гости, не могут оставлять комментарии к данной публикации.