Панель пользователя
Регистрация

Воспользуйтесь социальными сетями для входа на https://freerutor.com

vk odnoklassniki facebook mailru yandex google
Популярное
Счетчик
Голосуй за нас
VIP на сайте
Популярное
Товары интернет магазина
загрузка...

Преступник (2016) BDRip-AVC | Лицензия

Преступник (2016) BDRip-AVC | Лицензия
Участники торрент обмена
Сидов Пиров Скачали
9 0 1123
Характеристика
Размер Файлы
2.25 GB
Поделиться раздачей
Фильмы (AVC)
Название: Преступник
Оригинальное название: Criminal
Жанр: Фантастика, боевик, триллер, драма, криминал, детектив
Выпущено: Великобритания, США / Lionsgate, Millennium Films
Режиссер постановщик: Ариэль Вромен
В главных ролях: Кевин Костнер, Гари Олдман, Томми Ли Джонс, Райан Рейнольдс, Элис Ив, Галь Гадот, Скотт Эдкинс, Майкл Питт, Антье Трауэ, Амори Ноласко
Краткое описание: В последней отчаянной попытке остановить катастрофу мирового масштаба генетики осуществляют невероятную операцию по вживлению воспоминаний и умений погибшего оперативника ЦРУ в тело опасного заключенного с надеждой, что тот доведет до конца прерванную миссию агента.
  • Видео данные: MPEG-4 AVC, 2000 Кбит/с, 1024х432
    Аудио данные: Русский (AC3, 6 ch, 384 Кбит/с), английский (AC3, 6 ch, 448 Кбит/с)
    Перевод: Дублированный [iTunes]
    Субтитры: Английские
    Продолжительность: 01:53:34
  • Преступник (2016) BDRip-AVC | Лицензия Преступник (2016) BDRip-AVC | Лицензия Преступник (2016) BDRip-AVC | Лицензия
  • Релиз без рекламы.


    General
    Unique ID : 177186485879380322300267624719931626819 (0x854CE03A4CC03417A1E5D6A8CF135543)
    Complete name : Criminal.2016.BDRip.AVC.mkv
    Format : Matroska
    Format version : Version 4 / Version 2
    File size : 2.25 GiB
    Duration : 1h 53mn
    Overall bit rate : 2 832 Kbps
    Movie name : Criminal.2016.
    Encoded date : UTC 2016-07-16 15:54:30
    Writing application : mkvmerge v9.2.0 ('Photograph') 64bit
    Writing library : libebml v1.3.3 + libmatroska v1.4.4

    Video
    ID : 1
    Format : AVC
    Format/Info : Advanced Video Codec
    Format profile : High@L4.1
    Format settings, CABAC : Yes
    Format settings, ReFrames : 12 frames
    Codec ID : V_MPEG4/ISO/AVC
    Duration : 1h 53mn
    Bit rate : 2 000 Kbps
    Width : 1 024 pixels
    Height : 432 pixels
    Display aspect ratio : 2.40:1
    Frame rate mode : Constant
    Frame rate : 23.976 (24000/1001) fps
    Color space : YUV
    Chroma subsampling : 4:2:0
    Bit depth : 8 bits
    Scan type : Progressive
    Bits/(Pixel*Frame) : 0.189
    Stream size : 1.59 GiB (71%)
    Writing library : x264 core 148 r2638 7599210
    Encoding settings : cabac=1 / ref=12 / deblock=1:-3:-3 / analyse=0x3:0x133 / me=umh / subme=10 / psy=1 / psy_rd=1.05:0.15 / mixed_ref=1 / me_range=64 / chroma_me=1 / trellis=2 / 8x8dct=1 / cqm=0 / deadzone=21,11 / fast_pskip=1 / chroma_qp_offset=-3 / threads=11 / lookahead_threads=2 / sliced_threads=0 / nr=0 / decimate=1 / interlaced=0 / bluray_compat=0 / constrained_intra=0 / bframes=12 / b_pyramid=2 / b_adapt=2 / b_bias=0 / direct=3 / weightb=1 / open_gop=0 / weightp=2 / keyint=240 / keyint_min=23 / scenecut=40 / intra_refresh=0 / rc_lookahead=60 / rc=2pass / mbtree=0 / bitrate=2000 / ratetol=1.0 / qcomp=0.70 / qpmin=0 / qpmax=69 / qpstep=4 / cplxblur=20.0 / qblur=0.5 / vbv_maxrate=30000 / vbv_bufsize=40000 / nal_hrd=none / filler=0 / ip_ratio=1.40 / pb_ratio=1.30 / aq=1:0.80
    Language : English
    Default : Yes
    Forced : No
    Color range : Limited
    Color primaries : BT.709
    Transfer characteristics : BT.709
    Matrix coefficients : BT.709

    Audio #1
    ID : 2
    Format : AC-3
    Format/Info : Audio Coding 3
    Mode extension : CM (complete main)
    Format settings, Endianness : Big
    Codec ID : A_AC3
    Duration : 1h 53mn
    Bit rate mode : Constant
    Bit rate : 384 Kbps
    Channel(s) : 6 channels
    Channel positions : Front: L C R, Side: L R, LFE
    Sampling rate : 48.0 KHz
    Frame rate : 31.250 fps (1536 spf)
    Compression mode : Lossy
    Delay relative to video : 18s 500ms
    Stream size : 311 MiB (14%)
    Title : DUB [iTunes]
    Language : Russian
    Default : Yes
    Forced : No

    Audio #2
    ID : 3
    Format : AC-3
    Format/Info : Audio Coding 3
    Mode extension : CM (complete main)
    Format settings, Endianness : Big
    Codec ID : A_AC3
    Duration : 1h 53mn
    Bit rate mode : Constant
    Bit rate : 448 Kbps
    Channel(s) : 6 channels
    Channel positions : Front: L C R, Side: L R, LFE
    Sampling rate : 48.0 KHz
    Frame rate : 31.250 fps (1536 spf)
    Compression mode : Lossy
    Stream size : 364 MiB (16%)
    Language : English
    Default : No
    Forced : No

    Text
    ID : 4
    Format : UTF-8
    Codec ID : S_TEXT/UTF8
    Codec ID/Info : UTF-8 Plain Text
    Duration : 1h 43mn
    Bit rate : 38 bps
    Count of elements : 1131
    Stream size : 29.0 KiB (0%)
    Language : English
    Default : No
    Forced : No

    Menu
    00:00:00.000 : en:1
    00:01:12.000 : en:2
    00:11:52.000 : en:3
    00:22:59.000 : en:4
    00:32:39.000 : en:5
    00:41:11.000 : en:6
    00:51:51.000 : en:7
    01:03:42.000 : en:8
    01:14:57.000 : en:9
    01:25:17.000 : en:10
    01:35:33.000 : en:11
    01:44:40.000 : en:12
10.0 из 10
голосов: 2
/10
/10
grab777 17-07-2016, 05:29
Информация
Посетители, находящиеся в группе Гости, не могут оставлять комментарии к данной публикации.