Панель пользователя
Регистрация

Воспользуйтесь социальными сетями для входа на https://freerutor.com

vk odnoklassniki facebook mailru yandex google
Популярное
Счетчик
Голосуй за нас
VIP на сайте
Популярное
Товары интернет магазина
загрузка...

Преимущество / Выгода (2015) WEBRip 720p

Преимущество / Выгода (2015) WEBRip 720p
Участники торрент обмена
Сидов Пиров Скачали
3 0 210
Характеристика
Размер Файлы
1.96 GB
Поделиться раздачей
Фильмы (720,1080,Blu-Ray)
Наименование: Преимущество / Выгода
Оригинальное наименование: Advantageous
Категория: Фантастика, драма, семейный
Произведено: США / Good Neighbors Media, D.C Intertainment,Inc.
Режиссер постановщик: Дженнифер Фанг
В главных ролях: Жаклин Ким, Джеймс Урбаняк, Ясмин Кази, Кен Жонг, Дженнифер Или, Саманта Ким, Трой Зи, Оливия Хортон, Дженнифер Икеда, Мерседес Гриффет
Краткое описание: В городе недалекого будущего, где стремительно растущий уровень роскоши затмевает экономические трудности, Гвен и ее дочь Жюль делают все возможное, чтобы сохранить чувство радости в их жизни, несмотря на отсутствие стабильности в окружающем их мире.
  • Видео данные: MPEG-4 AVC, 2867 Кбит/с, 1280x672
    Аудио данные: AC3, 2 ch, 192 Кбит/с
    Перевод: Любительский двухголосый [Kris & Aleister]
    Продолжительность: 01:31:33
  • Преимущество / Выгода (2015) WEBRip 720p Преимущество / Выгода (2015) WEBRip 720p Преимущество / Выгода (2015) WEBRip 720p
  • General
    Unique ID : 249654879851242917813072982343343130078 (0xBBD1C7E8325BA4B898AC2BE62F8BC5DE)
    Complete name : D:[R.E.C.] Advantageous (WEBRip, 720p, 8 bit, AC-3 RU)[R.E.C.] Преимущество (Kris & Aleister).mkv
    Format : Matroska
    Format version : Version 4 / Version 2
    File size : 1.96 GiB
    Duration : 1h 31mn
    Overall bit rate : 3 059 Kbps
    Encoded date : UTC 2016-07-08 12:36:16
    Writing application : mkvmerge v8.4.0 ('A better way to fly') 32bit
    Writing library : libebml v1.3.1 + libmatroska v1.4.2

    Video
    ID : 1
    Format : AVC
    Format/Info : Advanced Video Codec
    Format profile : Main@L3.1
    Format settings, CABAC : Yes
    Format settings, ReFrames : 4 frames
    Codec ID : V_MPEG4/ISO/AVC
    Duration : 1h 31mn
    Bit rate : 2 867 Kbps
    Width : 1 280 pixels
    Height : 672 pixels
    Display aspect ratio : 1.905
    Frame rate mode : Constant
    Frame rate : 23.976 fps
    Color space : YUV
    Chroma subsampling : 4:2:0
    Bit depth : 8 bits
    Scan type : Progressive
    Bits/(Pixel*Frame) : 0.139
    Stream size : 1.83 GiB (94%)
    Writing library : x264 core 112
    Encoding settings : cabac=1 / ref=2 / deblock=1:0:0 / analyse=0x1:0x111 / me=hex / subme=6 / psy=1 / psy_rd=1.00:0.00 / mixed_ref=0 / me_range=16 / chroma_me=1 / trellis=0 / 8x8dct=0 / cqm=0 / deadzone=21,11 / fast_pskip=1 / chroma_qp_offset=-2 / threads=12 / sliced_threads=0 / nr=0 / decimate=1 / interlaced=0 / constrained_intra=0 / bframes=2 / b_pyramid=2 / b_adapt=1 / b_bias=0 / direct=1 / weightb=0 / open_gop=0 / weightp=2 / keyint=240 / keyint_min=23 / scenecut=40 / intra_refresh=0 / rc_lookahead=40 / rc=2pass / mbtree=1 / bitrate=2867 / ratetol=1.0 / qcomp=0.60 / qpmin=3 / qpmax=51 / qpstep=4 / cplxblur=20.0 / qblur=0.5 / ip_ratio=1.40 / aq=1:1.00
    Language : English
    Default : Yes
    Forced : No
    Color range : Limited
    Color primaries : BT.709
    Transfer characteristics : BT.709
    Matrix coefficients : BT.709

    Audio
    ID : 2
    Format : AC-3
    Format/Info : Audio Coding 3
    Mode extension : CM (complete main)
    Format settings, Endianness : Big
    Codec ID : A_AC3
    Duration : 1h 31mn
    Bit rate mode : Constant
    Bit rate : 192 Kbps
    Channel(s) : 2 channels
    Channel positions : Front: L R
    Sampling rate : 48.0 KHz
    Frame rate : 31.250 fps (1536 spf)
    Compression mode : Lossy
    Stream size : 126 MiB (6%)
    Title : [Kris & Aleister]
    Language : Russian
    Default : Yes
    Forced : No

    Text
    ID : 3
    Format : ASS
    Codec ID : S_TEXT/ASS
    Codec ID/Info : Advanced Sub Station Alpha
    Duration : 2mn 20s
    Bit rate : 37 bps
    Count of elements : 4
    Compression mode : Lossless
    Stream size : 661 Bytes (0%)
    Title : [Надписи]
    Language : Russian
    Default : Yes
    Forced : Yes
4.0 из 10
голосов: 1
/10
/10
grab777 16-07-2016, 01:52
Информация
Посетители, находящиеся в группе Гости, не могут оставлять комментарии к данной публикации.