Панель пользователя
Регистрация

Воспользуйтесь социальными сетями для входа на https://freerutor.com

vk odnoklassniki facebook mailru yandex google
Популярное
Счетчик
Голосуй за нас
VIP на сайте
Популярное
Товары интернет магазина
загрузка...

Судная ночь 3 (2016) BDRip 720p | Лицензия

Судная ночь 3 (2016)  BDRip 720p | Лицензия
Участники торрент обмена
Сидов Пиров Скачали
5 0 299
Характеристика
Размер Файлы
6.73 GB
Релиз группа
Поделиться раздачей
Фильмы (720,1080,Blu-Ray)
Наименование: Судная ночь 3
Оригинальное наименование: The Purge: Election Year
Произведено: Франция, США
Категория: ужасы, фантастика, боевик, триллер
Режиссер постановщик: Джеймс ДеМонако
В главных ролях: Фрэнк Грилло, Элизабет Митчелл, Майкелти Уильямсон, Джозеф Джулиан Сория, Бетти Гэбриел, Терри Серпико, Эдвин Ходж, Кайл Сикор, Бэрри Нолан, Лиза Колон-Зайас
Краткое описание: Добро пожаловать в идеальное будущее, в котором Судная ночь превратилась в международный тренд. Туристы со всего мира прибывают в аэропорты Америки: ведь всего лишь раз в году здесь позволено все, главное - дожить до рассвета.
  • Видео данные: MPEG-4 AVC, 6137 Кбит/с, 1280x536
    Аудио данные: Русский (AC3, 6 ch, 448 Кбит/с), (DTS, 6 ch, 768 Кбит/с), английский (DTS, 6 ch, 1510 Кбит/с)
    Перевод: Дублированный [Лицензия ]
    Субтитры: Английские
    Продолжительность: 01:48:47
  • Судная ночь 3 (2016)  BDRip 720p | Лицензия Судная ночь 3 (2016)  BDRip 720p | Лицензия Судная ночь 3 (2016)  BDRip 720p | Лицензия
  • Общее
    Уникальный идентификатор : 252601982102399109088402339801101842255 (0xBE095F4430D36DB5B6FF9E5A0F2D374F)
    Полное имя : D:ЗагрузкиThe.Purge.Election.Year.2016.BDRip.720p.ExKinoRay.mkv
    Формат : Matroska
    Версия формата : Version 2
    Размер файла : 6,73 Гбайт
    Продолжительность : 1 ч. 48 м.
    Общий поток : 8857 Кбит/сек
    Название фильма : ***селезень***
    Дата кодирования : UTC 2016-10-25 22:03:00
    Программа кодирования : mkvmerge v5.6.0 ('Kenya Kane') built on May 27 2012 16:44:04
    Библиотека кодирования : libebml v1.2.3 + libmatroska v1.3.0

    Видео
    Идентификатор : 1
    Формат : AVC
    Формат/Информация : Advanced Video Codec
    Профиль формата : High@L4.1
    Параметр CABAC формата : Да
    Параметр ReFrames формата : 12 кадров
    Идентификатор кодека : V_MPEG4/ISO/AVC
    Продолжительность : 1 ч. 48 м.
    Битрейт : 6137 Кбит/сек
    Ширина : 1280 пикселей
    Высота : 536 пикселей
    Соотношение сторон : 2,40:1
    Режим частоты кадров : Постоянный
    Частота кадров : 23,976 (24000/1001) кадра/сек
    Цветовое пространство : YUV
    Субдискретизация насыщенности : 4:2:0
    Битовая глубина : 8 бит
    Тип развёртки : Прогрессивная
    Бит/(Пиксели*Кадры) : 0.373
    Размер потока : 4,53 Гбайт (67%)
    Заголовок : ***селезень***
    Библиотека кодирования : x264 core 142 r2431+42 c69a006 tMod [8-bit@all X86_64]
    Настройки программы : cabac=1 / ref=12 / deblock=1:-3:-3 / analyse=0x3:0x113 / me=umh / subme=10 / psy=1 / fade_compensate=0.00 / psy_rd=1.00:1.00 / mixed_ref=1 / me_range=48 / chroma_me=1 / trellis=2 / 8x8dct=1 / cqm=0 / deadzone=21,11 / fast_pskip=0 / chroma_qp_offset=-4 / threads=16 / lookahead_threads=1 / sliced_threads=0 / nr=0 / decimate=0 / interlaced=0 / bluray_compat=0 / constrained_intra=0 / fgo=0 / bframes=12 / b_pyramid=2 / b_adapt=1 / b_bias=0 / direct=3 / weightb=1 / open_gop=0 / weightp=2 / keyint=240 / keyint_min=23 / scenecut=40 / intra_refresh=0 / rc_lookahead=100 / rc=2pass / mbtree=0 / bitrate=6137 / ratetol=1.0 / qcomp=0.80 / qpmin=0:0:0 / qpmax=69:69:69 / qpstep=4 / cplxblur=20.0 / qblur=0.5 / vbv_maxrate=40000 / vbv_bufsize=30000 / nal_hrd=none / filler=0 / ip_ratio=1.30 / pb_ratio=1.40 / aq=2:0.90 / aq-sensitivity=10.00 / aq-factor=1.00:1.00:1.00 / aq2=0 / aq3=0
    Язык : English
    Default : Да
    Forced : Нет
    Цветовой диапазон : Limited
    Основные цвета : BT.709
    Характеристики трансфера : BT.709
    Коэффициенты матрицы : BT.709

    Аудио #1
    Идентификатор : 2
    Формат : AC-3
    Формат/Информация : Audio Coding 3
    Расширение режима : CM (complete main)
    Параметр Endianness формата : Big
    Идентификатор кодека : A_AC3
    Продолжительность : 1 ч. 48 м.
    Вид битрейта : Постоянный
    Битрейт : 448 Кбит/сек
    Каналы : 6 каналов
    Расположение каналов : Front: L C R, Side: L R, LFE
    Частота : 48,0 КГц
    Частота кадров : 31,250 кадров/сек (1536 spf)
    Метод сжатия : С потерями
    Размер потока : 349 Мбайт (5%)
    Заголовок : Дублированный (Лицензия)
    Язык : Russian
    Default : Да
    Forced : Нет

    Аудио #2
    Идентификатор : 3
    Формат : DTS
    Формат/Информация : Digital Theater Systems
    Режим : 16
    Параметр Endianness формата : Big
    Идентификатор кодека : A_DTS
    Продолжительность : 1 ч. 48 м.
    Вид битрейта : Постоянный
    Битрейт : 768 Кбит/сек
    Каналы : 6 каналов
    Расположение каналов : Front: L C R, Side: L R, LFE
    Частота : 48,0 КГц
    Частота кадров : 93,750 кадра/сек (512 spf)
    Битовая глубина : 24 бит
    Метод сжатия : С потерями
    Размер потока : 598 Мбайт (9%)
    Заголовок : Дублированный (Лицензия)
    Язык : Russian
    Default : Нет
    Forced : Нет

    Аудио #3
    Идентификатор : 4
    Формат : DTS
    Формат/Информация : Digital Theater Systems
    Режим : 16
    Параметр Endianness формата : Big
    Идентификатор кодека : A_DTS
    Продолжительность : 1 ч. 48 м.
    Вид битрейта : Постоянный
    Битрейт : 1509 Кбит/сек
    Каналы : 6 каналов
    Расположение каналов : Front: L C R, Side: L R, LFE
    Частота : 48,0 КГц
    Частота кадров : 93,750 кадра/сек (512 spf)
    Битовая глубина : 24 бит
    Метод сжатия : С потерями
    Размер потока : 1,15 Гбайт (17%)
    Заголовок : Original
    Язык : English
    Default : Нет
    Forced : Нет

    Текст #1
    Идентификатор : 5
    Формат : UTF-8
    Идентификатор кодека : S_TEXT/UTF8
    Идентификатор кодека/Информация : UTF-8 Plain Text
    Заголовок : Full
    Язык : English
    Default : Нет
    Forced : Нет

    Текст #2
    Идентификатор : 6
    Формат : UTF-8
    Идентификатор кодека : S_TEXT/UTF8
    Идентификатор кодека/Информация : UTF-8 Plain Text
    Заголовок : SDH
    Язык : English
    Default : Нет
    Forced : Нет

    Меню
    00:00:00.000 : en:00:00:00.000
    00:05:47.347 : en:00:05:47.347
    00:09:21.978 : en:00:09:21.978
    00:17:15.618 : en:00:17:15.618
    00:22:49.493 : en:00:22:49.493
    00:28:43.180 : en:00:28:43.180
    00:35:58.490 : en:00:35:58.490
    00:41:50.508 : en:00:41:50.508
    00:47:03.112 : en:00:47:03.112
    00:53:30.374 : en:00:53:30.374
    00:57:31.531 : en:00:57:31.531
    01:02:20.820 : en:01:02:20.820
    01:10:43.614 : en:01:10:43.614
    01:17:32.731 : en:01:17:32.731
    01:22:16.765 : en:01:22:16.765
    01:27:03.093 : en:01:27:03.093
    01:32:12.819 : en:01:32:12.819
    01:36:17.480 : en:01:36:17.480
    01:41:35.715 : en:01:41:35.715
    01:43:36.752 : en:01:43:36.752
6.7 из 10
голосов: 11
/10
/10
foster720p 26-10-2016, 01:20

karta | 21-09-2016, 23:36 | Статус: Оффлайн

Информация
Посетители, находящиеся в группе Гости, не могут оставлять комментарии к данной публикации.