Панель пользователя
Регистрация

Воспользуйтесь социальными сетями для входа на https://freerutor.com

vk odnoklassniki facebook mailru yandex google
Популярное
Счетчик
Голосуй за нас
VIP на сайте
Популярное
Товары интернет магазина
загрузка...

Парни из Менильмонтана (2013) HDTV 1080i

Парни из Менильмонтана (2013) HDTV 1080i
Участники торрент обмена
Сидов Пиров Скачали
0 0 64
Характеристика
Размер Файлы
4.65 GB
Релиз группа
Поделиться раздачей
Фильмы (720,1080,Blu-Ray)
Наименование: Парни из Менильмонтана
Оригинальное наименование: Un p'tit gars de Ménilmontant
Категория: Драма, криминал
Произведено: Франция / Djinn Productions, Bad Company
Режиссер постановщик: Ален Минье
В главных ролях: Оливье Маршаль, Смаин, Катрин Маршаль, Нассим Бутели, Жанна Савари, Хелен Бизо, София Лассуэд, Том Инверницци, Кристиан Мюло, Тони Либрицци
Краткое описание: Джо выходит на свободу после 15-летнего тюремного заключения. За эти годы жизнь в его родном районе Менильмонтане, да и во всей стране, кардинально изменилась. Джо пытается найти себе место в новом мире, который больше не подчиняется правилам, усвоенным парнем в юности, однако всюду чувствует себя лишним. Но однажды он встречает людей, которые готовы ему помочь.
  • Видео данные: MPEG-4 AVC, 6534 Кбит/с, 1920x1080
    Аудио данные: Русский (AC3, 6 ch, 448 Кбит/с), (MP2, 2 ch, 192 Кбит/с)
    Перевод: Профессиональный многоголосый
    Продолжительность: 01:28:09
  • Парни из Менильмонтана (2013) HDTV 1080i Парни из Менильмонтана (2013) HDTV 1080i Парни из Менильмонтана (2013) HDTV 1080i
  • Автор релиза - Silverok, первоисточник - Кинопоказ HD1


    Общее
    Идентификатор : 1 (0x1)
    Полное имя : D:\uTorrent\Parni.iz.Menilmontana.2013.HDTV.1080i.MediaClub.ts
    Формат : MPEG-TS
    Размер файла : 4,65 Гбайт
    Продолжительность : 1 ч. 28 м.
    Режим общего битрейта : Переменный
    Общий поток : 7554 Кбит/сек

    Видео
    Идентификатор : 3031 (0xBD7)
    Идентификатор меню : 1234 (0x4D2)
    Формат : AVC
    Формат/Информация : Advanced Video Codec
    Профиль формата : Main@L4
    Параметр CABAC формата : Да
    Параметр ReFrames формата : 4 кадра
    Параметр GOP формата : M=1, N=32
    Идентификатор кодека : 27
    Продолжительность : 1 ч. 28 м.
    Битрейт : 6534 Кбит/сек
    Ширина : 1920 пикселей
    Высота : 1080 пикселей
    Соотношение сторон : 16:9
    Частота кадров : 25,000 кадров/сек
    Цветовое пространство : YUV
    Субдискретизация насыщенности : 4:2:0
    Битовая глубина : 8 бит
    Тип развёртки : Чересстрочная
    Метод сохранения типа развёртки : Раздельные поля
    Порядок развёртки : Верхнее поле первое
    Бит/(Пиксели*Кадры) : 0.126
    Размер потока : 4,02 Гбайт (86%)
    Цветовой диапазон : Limited
    Основные цвета : BT.709
    Характеристики трансфера : BT.709
    Коэффициенты матрицы : BT.709

    Аудио #1
    Идентификатор : 3032 (0xBD8)
    Идентификатор меню : 1234 (0x4D2)
    Формат : AC-3
    Формат/Информация : Audio Coding 3
    Расширение режима : CM (complete main)
    Параметр Endianness формата : Big
    Идентификатор кодека : 6
    Продолжительность : 1 ч. 28 м.
    Вид битрейта : Постоянный
    Битрейт : 448 Кбит/сек
    Каналы : 6 каналов
    Расположение каналов : Front: L C R, Side: L R, LFE
    Частота : 48,0 КГц
    Частота кадров : 31,250 кадров/сек (1536 spf)
    Метод сжатия : С потерями
    Размер потока : 282 Мбайт (6%)
    Язык : Russian

    Аудио #2
    Идентификатор : 3033 (0xBD9)
    Идентификатор меню : 1234 (0x4D2)
    Формат : MPEG Audio
    Версия формата : Version 1
    Профиль формата : Layer 2
    Идентификатор кодека : 3
    Продолжительность : 1 ч. 28 м.
    Вид битрейта : Постоянный
    Битрейт : 192 Кбит/сек
    Каналы : 2 канала
    Частота : 48,0 КГц
    Метод сжатия : С потерями
    Размер потока : 121 Мбайт (3%)
    Язык : Russian
5.0 из 10
голосов: 1
/10
/10
grab777 15-07-2016, 07:12
Информация
Посетители, находящиеся в группе Гости, не могут оставлять комментарии к данной публикации.