Панель пользователя
Регистрация

Воспользуйтесь социальными сетями для входа на https://freerutor.com

vk odnoklassniki facebook mailru yandex google
Популярное
Счетчик
Голосуй за нас
VIP на сайте
Популярное
Товары интернет магазина
загрузка...

Высотка (2015) BDRip-AVC | Лицензия

Высотка (2015) BDRip-AVC | Лицензия
Участники торрент обмена
Сидов Пиров Скачали
2 0 219
Характеристика
Размер Файлы
2.38 GB
Релиз группа
Поделиться раздачей
Фильмы (AVC)
Наименование: Высотка
Оригинальное наименование: High-Rise
Категория: драма
Произведено: Великобритания, Бельгия
Режиссер постановщик: Бен Уитли
В главных ролях: Том Хиддлстон (Laing), Джереми Айронс (Royal), Сиенна Миллер (Charlotte), Люк Эванс (Wilder), Элизабет Мосс (Helen), Джеймс Пьюрфой (Pangbourne), Кили Хоуз (Ann), Питер Фердинандо (Cosgrove), Сиенна Гиллори (Jane), Рис Шерсмит (Steele), Энцо Чиленти (Talbot), Август Прю (Munrow)
Краткое описание: Элитная высотка - идеальная модель мира будущего. Здесь есть всё для комфортной и роскошной жизни. Но зависть, соперничество, жажда острых ощущений постепенно разжигают открытую вражду между жителями высотки, заставляя забыть о законах морали даже лучших из них.
Добро пожаловать в мир будущего.
  • Видео данные: MPEG-4 AVC, 2037 Кбит/с, 1024x428
    Аудио данные: Русский (AC3, 6 ch, 384 Кбит/с), английский (АС3, 6 ch, 448 Кбит/с)
    Перевод: Дубляж - [iTunes]
    Продолжительность: 01:58:36
    Субтитры: английские (FULL), английские (SDH)
  • Высотка (2015) BDRip-AVC | Лицензия Высотка (2015) BDRip-AVC | Лицензия Высотка (2015) BDRip-AVC | Лицензия
  • General
    Unique ID : 181890483748536471139689348075980811089 (0x88D6D53A9348EC71BA21948E6F1B6B51)
    Complete name : D:downloadHIGH RISE.2015..BDRip-AVC by schultz R.G.Resident..mkv
    Format : Matroska
    Format version : Version 4 / Version 2
    File size : 2.38 GiB
    Duration : 1h 58mn
    Overall bit rate : 2 871 Kbps
    Encoded date : UTC 2016-07-13 11:36:09
    Writing application : mkvmerge v8.9.0 ('Father Daughter') 64bit
    Writing library : libebml v1.3.3 + libmatroska v1.4.4
    DURATION : 01:53:19.191000000
    NUMBER_OF_FRAMES : 1292
    NUMBER_OF_BYTES : 39476
    _STATISTICS_WRITING_APP : mkvmerge v8.9.0 ('Father Daughter') 64bit
    _STATISTICS_WRITING_DATE_UTC : 2016-07-13 11:36:09
    _STATISTICS_TAGS : BPS DURATION NUMBER_OF_FRAMES NUMBER_OF_BYTES

    Video
    ID : 1
    Format : AVC
    Format/Info : Advanced Video Codec
    Format profile : High@L4.1
    Format settings, CABAC : Yes
    Format settings, ReFrames : 12 frames
    Codec ID : V_MPEG4/ISO/AVC
    Duration : 1h 58mn
    Bit rate : 2 037 Kbps
    Width : 1 024 pixels
    Height : 428 pixels
    Display aspect ratio : 2.40:1
    Frame rate : 24.000 fps
    Color space : YUV
    Chroma subsampling : 4:2:0
    Bit depth : 8 bits
    Scan type : Progressive
    Bits/(Pixel*Frame) : 0.194
    Stream size : 1.64 GiB (69%)
    Writing library : x264 core 146 r2538 121396c
    Encoding settings : cabac=1 / ref=12 / deblock=1:-3:-3 / analyse=0x3:0x113 / me=umh / subme=11 / psy=1 / psy_rd=1.00:0.00 / mixed_ref=1 / me_range=48 / chroma_me=1 / trellis=2 / 8x8dct=1 / cqm=0 / deadzone=21,11 / fast_pskip=0 / chroma_qp_offset=-2 / threads=12 / lookahead_threads=3 / sliced_threads=0 / nr=0 / decimate=0 / interlaced=0 / bluray_compat=0 / constrained_intra=0 / bframes=13 / b_pyramid=2 / b_adapt=2 / b_bias=0 / direct=3 / weightb=1 / open_gop=0 / weightp=2 / keyint=240 / keyint_min=23 / scenecut=40 / intra_refresh=0 / rc_lookahead=40 / rc=2pass / mbtree=1 / bitrate=2037 / ratetol=1.0 / qcomp=0.60 / qpmin=0 / qpmax=69 / qpstep=4 / cplxblur=20.0 / qblur=0.5 / vbv_maxrate=14000 / vbv_bufsize=14000 / nal_hrd=none / filler=0 / ip_ratio=1.40 / aq=1:1.00
    Language : English
    Default : Yes
    Forced : No
    DURATION : 01:58:36.048000000
    NUMBER_OF_FRAMES : 170785
    NUMBER_OF_BYTES : 1811528810
    _STATISTICS_WRITING_APP : mkvmerge v8.9.0 ('Father Daughter') 64bit
    _STATISTICS_WRITING_DATE_UTC : 2016-07-13 11:36:09
    _STATISTICS_TAGS : BPS DURATION NUMBER_OF_FRAMES NUMBER_OF_BYTES

    Audio #1
    ID : 2
    Format : AC-3
    Format/Info : Audio Coding 3
    Mode extension : CM (complete main)
    Codec ID : A_AC3
    Duration : 1h 58mn
    Bit rate mode : Constant
    Bit rate : 384 Kbps
    Channel(s) : 6 channels
    Channel positions : Front: L C R, Side: L R, LFE
    Sampling rate : 48.0 KHz
    Bit depth : 16 bits
    Compression mode : Lossy
    Stream size : 326 MiB (13%)
    Language : Russian
    Default : Yes
    Forced : No

    Audio #2
    ID : 3
    Format : AC-3
    Format/Info : Audio Coding 3
    Mode extension : CM (complete main)
    Codec ID : A_AC3
    Duration : 1h 58mn
    Bit rate mode : Constant
    Bit rate : 448 Kbps
    Channel(s) : 6 channels
    Channel positions : Front: L C R, Side: L R, LFE
    Sampling rate : 48.0 KHz
    Bit depth : 16 bits
    Compression mode : Lossy
    Stream size : 380 MiB (16%)
    Language : English
    Default : No
    Forced : No

    Text #1
    ID : 4
    Format : UTF-8
    Codec ID : S_TEXT/UTF8
    Codec ID/Info : UTF-8 Plain Text
    Title : FULL
    Language : English
    Default : No
    Forced : No

    Text #2
    ID : 5
    Format : UTF-8
    Codec ID : S_TEXT/UTF8
    Codec ID/Info : UTF-8 Plain Text
    Title : SDH
    Language : English
    Default : No
    Forced : No
7.0 из 10
голосов: 3
/10
/10
schultz 13-07-2016, 22:33
Информация
Посетители, находящиеся в группе Гости, не могут оставлять комментарии к данной публикации.