Панель пользователя
Регистрация

Воспользуйтесь социальными сетями для входа на https://freerutor.com

vk odnoklassniki facebook mailru yandex google
Популярное
Счетчик
Голосуй за нас
VIP на сайте
Популярное
Товары интернет магазина
загрузка...

Налетчики (2016) WEB-DLRip-AVC

Налетчики (2016) WEB-DLRip-AVC
Участники торрент обмена
Сидов Пиров Скачали
1 0 542
Характеристика
Размер Файлы
1.75 GB
Поделиться раздачей
Фильмы (AVC)
Наименование: Налетчики
Оригинальное наименование: Marauders
Категория: Боевик
Произведено: Канада / 4th Wall Entertainment, Emmett/Furla Films, Grindstone Entertainment Group, Lionsgate Home Entertainment
Режиссер постановщик: Стивен С. Миллер
В главных ролях: Брюс Уиллис, Кристофер Мелони, Дэйв Батиста, Эдриан Гренье, Лидия Халл, Тайлер Джон Олсон, Кристофер Роб Бауэн, Ричи Чэнс, Дэнни А. Абекейзер
Краткое описание: История об агенте ФБР, который нападает на след преступников, ограбивших банк и отдавших все украденные деньги на благотворительные нужды. Чем дальше продвигается расследование, тем больше главный герой убеждается в том, что у владельца банка имеются собственные секреты.
  • Видео данные: MPEG-4 AVC, 1500 Кбит/с, 1024x424
    Аудио данные: Русский (AC3, 6 ch, 384 Кбит/с)
    Перевод: Любительский многоголосый, любительский одноголосый
    Субтитры: Русские, английские
    Продолжительность: 01:47:08
    Релиз без рекламы!
  • Налетчики (2016) WEB-DLRip-AVC Налетчики (2016) WEB-DLRip-AVC Налетчики (2016) WEB-DLRip-AVC
  • Общее
    Уникальный идентификатор : 213224287094226109660076046992943608864 (0xA06981021DB89636BE95EB94BA93F420)
    Полное имя : E:\Раздача-BDRip\Naletchiki.2016.WEB-DLRip-AVC.mkv
    Формат : Matroska
    Версия формата : Version 2
    Размер файла : 1,75 Гбайт
    Продолжительность : 1 ч. 47 м.
    Общий поток : 2333 Кбит/сек
    Дата кодирования : UTC 2016-07-12 19:56:56
    Программа кодирования : mkvmerge v5.8.0 ('No Sleep / Pillow') built on Sep 2 2012 15:37:04
    Библиотека кодирования : libebml v1.2.3 + libmatroska v1.3.0

    Видео
    Идентификатор : 1
    Формат : AVC
    Формат/Информация : Advanced Video Codec
    Профиль формата : High@L4.1
    Параметр CABAC формата : Да
    Параметр ReFrames формата : 10 кадров
    Идентификатор кодека : V_MPEG4/ISO/AVC
    Продолжительность : 1 ч. 47 м.
    Битрейт : 1500 Кбит/сек
    Ширина : 1024 пикселя
    Высота : 424 пикселя
    Соотношение сторон : 2,40:1
    Соотношение сторон в оригинале : 2,40:1
    Режим частоты кадров : Постоянный
    Частота кадров : 23,976 кадра/сек
    Цветовое пространство : YUV
    Субдискретизация насыщенности : 4:2:0
    Битовая глубина : 8 бит
    Тип развёртки : Прогрессивная
    Бит/(Пиксели*Кадры) : 0.144
    Размер потока : 1,09 Гбайт (62%)
    Библиотека кодирования : x264 core 148
    Настройки программы : cabac=1 / ref=10 / deblock=1:-2:-2 / analyse=0x3:0x113 / me=umh / subme=11 / psy=1 / psy_rd=1,00:0,00 / mixed_ref=1 / me_range=24 / chroma_me=1 / trellis=2 / 8x8dct=1 / cqm=0 / deadzone=21,11 / fast_pskip=1 / chroma_qp_offset=-2 / threads=6 / lookahead_threads=1 / sliced_threads=0 / nr=0 / decimate=1 / interlaced=0 / bluray_compat=0 / constrained_intra=0 / bframes=11 / b_pyramid=2 / b_adapt=1 / b_bias=0 / direct=1 / weightb=1 / open_gop=0 / weightp=2 / keyint=240 / keyint_min=24 / scenecut=40 / intra_refresh=0 / rc_lookahead=40 / rc=2pass / mbtree=1 / bitrate=1500 / ratetol=1,0 / qcomp=0,60 / qpmin=0 / qpmax=69 / qpstep=4 / cplxblur=20,0 / qblur=0,5 / vbv_maxrate=62500 / vbv_bufsize=78125 / nal_hrd=none / filler=0 / ip_ratio=1,40 / aq=1:1,00
    Default : Да
    Forced : Нет
    Основные цвета : BT.709
    Характеристики трансфера : BT.709
    Коэффициенты матрицы : BT.709

    Аудио #1
    Идентификатор : 2
    Формат : AC-3
    Формат/Информация : Audio Coding 3
    Расширение режима : CM (complete main)
    Параметр Endianness формата : Big
    Идентификатор кодека : A_AC3
    Продолжительность : 1 ч. 47 м.
    Вид битрейта : Постоянный
    Битрейт : 384 Кбит/сек
    Каналы : 6 каналов
    Расположение каналов : Front: L C R, Side: L R, LFE
    Частота : 48,0 КГц
    Битовая глубина : 16 бит
    Метод сжатия : С потерями
    Задержка видео : -83 мс.
    Размер потока : 294 Мбайт (16%)
    Заголовок : MVO (СПД)
    Язык : Russian
    Default : Да
    Forced : Нет

    Аудио #2
    Идентификатор : 3
    Формат : AC-3
    Формат/Информация : Audio Coding 3
    Расширение режима : CM (complete main)
    Параметр Endianness формата : Big
    Идентификатор кодека : A_AC3
    Продолжительность : 1 ч. 47 м.
    Вид битрейта : Постоянный
    Битрейт : 448 Кбит/сек
    Каналы : 6 каналов
    Расположение каналов : Front: L C R, Side: L R, LFE
    Частота : 48,0 КГц
    Битовая глубина : 16 бит
    Метод сжатия : С потерями
    Задержка видео : -83 мс.
    Размер потока : 343 Мбайт (19%)
    Заголовок : vo (solod)
    Язык : Russian
    Default : Нет
    Forced : Нет

    Текст #1
    Идентификатор : 4
    Формат : UTF-8
    Идентификатор кодека : S_TEXT/UTF8
    Идентификатор кодека/Информация : UTF-8 Plain Text
    Заголовок : rus full [solod]
    Язык : Russian
    Default : Нет
    Forced : Нет

    Текст #2
    Идентификатор : 5
    Формат : ASS
    Идентификатор кодека : S_TEXT/ASS
    Идентификатор кодека/Информация : Advanced Sub Station Alpha
    Метод сжатия : Без потерь
    Заголовок : eng full
    Язык : English
    Default : Нет
    Forced : Нет

    Меню
    00:00:00.000 : :1
    00:05:20.111 : :2
    00:15:11.118 : :3
    00:25:04.127 : :4
    00:35:16.155 : :5
    00:46:15.189 : :6
    00:55:59.105 : :7
    01:07:05.104 : :8
    01:17:17.090 : :9
    01:28:23.089 : :10
    01:41:22.117 : :11
7.8 из 10
голосов: 4
/10
/10
grab777 12-07-2016, 23:36

msobotka | 17-07-2016, 01:11 | Статус: Оффлайн

Объективно слабое кино снятое слабым режиссером, которым молод и рвется изо всех сил на вершину, поэтому снимает всякую хрень. И снято по слабому сценарию написанному не пойми кем. При этом не плохой актерский состав. Почему Брюс снимается в проходных картинах категории "В" - не понятно. верит, что рано или поздно, но молодая кровь оживит Голливуд? Не оживит, на место титанов приходят пакемоны.
Информация
Посетители, находящиеся в группе Гости, не могут оставлять комментарии к данной публикации.