Панель пользователя
Регистрация

Воспользуйтесь социальными сетями для входа на https://freerutor.com

vk odnoklassniki facebook mailru yandex google
Популярное
Счетчик
Голосуй за нас
VIP на сайте
Популярное
Товары интернет магазина
загрузка...

Бэтмен против Супермена: На заре справедливости (2016) Blu-Ray Remux 1080p | Расширенная версия

Бэтмен против Супермена: На заре справедливости (2016) Blu-Ray Remux 1080p | Расширенная версия
Участники торрент обмена
Сидов Пиров Скачали
6 0 1233
Характеристика
Размер Файлы
37.46 GB
Релиз группа
Поделиться раздачей
Фильмы (720,1080,Blu-Ray)
Наименование: Бэтмен против Супермена: На заре справедливости
Оригинальное наименование: Batman v Superman: Dawn of Justice
Категория: Фантастика, фэнтези, боевик, приключения
Произведено: США, Atlas Entertainment, DC Comics, DC Entertainment, RatPac-Dune Entertainment, Warner Bros. Pictures
Режиссер: Зак Снайдер
В главных ролях: Генри Кавилл, Бен Аффлек, Галь Гадот, Эми Адамс, Джесси Айзенберг, Джереми Айронс, Дайан Лэйн, Лоренс Фишбёрн, Холли Хантер, Скут МакНэйри, Каллэн Мулвей, Тао Окамото, Брэндон Спинк, Лорен Коэн, Алан Д. Первин, Марк Эдвард Тейлор, Хью Магвайр, Майкл Шеннон, Ханна Дворкин, Тиффани Л. Эддисон
Краткое описание: Битва между Кал-Элом и генералом Зодом наносит множество разрушений Метрополису и соседнему Готэм Сити. Башня Уэйн-тауэр - уничтожена вместе с сотнями невинных людей. Это становится началом конфликта между Последним Сыном Криптона и Темным Рыцарем Готэма, богом и человеком. Тем временем, сумасшедший гений Лекс Лютор готовит оружие Судного дня, способное уничтожить не только богоподобного Супермена, но и все человечество.
  • Видео данные: MPEG-4 AVC, 24.0 Mбит/с, 1920x1080
    Аудио данные: Русский (AC3, 6 ch, 384 Кбит/с), английский (TrueHD, 8 ch, 4967 Кбит/с)
    Перевод: Дублированный [iTunes]
    Продолжительность: 03:02:31
    Субтитры: Русские, английские
    Примечание: Перевод iTunes со вставками многолосового закадрового на непереведенные места.
    Релиз без рекламы.
  • Бэтмен против Супермена: На заре справедливости (2016) Blu-Ray Remux 1080p | Расширенная версия Бэтмен против Супермена: На заре справедливости (2016) Blu-Ray Remux 1080p | Расширенная версия Бэтмен против Супермена: На заре справедливости (2016) Blu-Ray Remux 1080p | Расширенная версия
  • General
    Unique ID : 175629226435269575254763965091042552439 (0x8420F568C8ACB0399E246D61E3FBEA77)
    Complete name : F:\Video\Batman.v.Superman.Dawn.of.Justice.2016.Extended.Ultimate.Edition.BDREMUX.1080p.ExKinoRay.mkv
    Format : Matroska
    Format version : Version 4 / Version 2
    File size : 37.5 GiB
    Duration : 3h 2mn
    Overall bit rate mode : Variable
    Overall bit rate : 29.4 Mbps
    Movie name : Batman.v.Superman.Dawn.of.Justice.2016.Extended.Ultimate.Edition.BDREMUX.1080p.ExKinoRay
    Encoded date : UTC 2016-07-07 21:54:34
    Writing application : mkvmerge v8.3.0 ('Over the Horizon') 64bit
    Writing library : libebml v1.3.1 + libmatroska v1.4.2

    Video
    ID : 1
    Format : AVC
    Format/Info : Advanced Video Codec
    Format profile : High@L4.1
    Format settings, CABAC : Yes
    Format settings, ReFrames : 2 frames
    Codec ID : V_MPEG4/ISO/AVC
    Duration : 3h 2mn
    Bit rate mode : Variable
    Bit rate : 24.0 Mbps
    Width : 1 920 pixels
    Height : 1 080 pixels
    Display aspect ratio : 16:9
    Frame rate mode : Constant
    Frame rate : 23.976 (24000/1001) fps
    Color space : YUV
    Chroma subsampling : 4:2:0
    Bit depth : 8 bits
    Scan type : Progressive
    Bits/(Pixel*Frame) : 0.482
    Stream size : 30.6 GiB (82%)
    Language : English
    Default : Yes
    Forced : No

    Audio #1
    ID : 2
    Format : AC-3
    Format/Info : Audio Coding 3
    Mode extension : CM (complete main)
    Format settings, Endianness : Big
    Codec ID : A_AC3
    Duration : 3h 2mn
    Bit rate mode : Constant
    Bit rate : 384 Kbps
    Channel(s) : 6 channels
    Channel positions : Front: L C R, Side: L R, LFE
    Sampling rate : 48.0 KHz
    Frame rate : 31.250 fps (1536 spf)
    Compression mode : Lossy
    Delay relative to video : 1s 0ms
    Stream size : 501 MiB (1%)
    Language : Russian
    Default : Yes
    Forced : No

    Audio #2
    ID : 3
    Format : Atmos / TrueHD
    Codec ID : A_TRUEHD
    Duration : 3h 2mn
    Bit rate mode : Variable
    Bit rate : 4 967 Kbps
    Maximum bit rate : 8 199 Kbps
    Channel(s) : Object Based / 8 channels
    Channel positions : Object Based / Front: L C R, Side: L R, Back: L R, LFE
    Sampling rate : / 48.0 KHz
    Frame rate : 1 200.000 fps (40 spf)
    Compression mode : Lossless
    Stream size : 6.33 GiB (17%)
    Language : English
    Default : No
    Forced : No

    Text #1
    ID : 4
    Format : UTF-8
    Codec ID : S_TEXT/UTF8
    Codec ID/Info : UTF-8 Plain Text
    Duration : 2h 53mn
    Bit rate : 19 bps
    Count of elements : 431
    Stream size : 24.5 KiB (0%)
    Title : Forced
    Language : Russian
    Default : Yes
    Forced : No

    Text #2
    ID : 5
    Format : UTF-8
    Codec ID : S_TEXT/UTF8
    Codec ID/Info : UTF-8 Plain Text
    Duration : 2h 53mn
    Bit rate : 66 bps
    Count of elements : 1588
    Stream size : 84.8 KiB (0%)
    Title : [NotaBenoid]
    Language : Russian
    Default : No
    Forced : No

    Text #3
    ID : 6
    Format : UTF-8
    Codec ID : S_TEXT/UTF8
    Codec ID/Info : UTF-8 Plain Text
    Duration : 3h 2mn
    Bit rate : 43 bps
    Count of elements : 1914
    Stream size : 58.7 KiB (0%)
    Title : Full
    Language : English
    Default : No
    Forced : No

    Text #4
    ID : 7
    Format : UTF-8
    Codec ID : S_TEXT/UTF8
    Codec ID/Info : UTF-8 Plain Text
    Duration : 2h 53mn
    Bit rate : 46 bps
    Count of elements : 1913
    Stream size : 58.5 KiB (0%)
    Title : SDH
    Language : English
    Default : No
    Forced : No

    Menu
    00:00:00.000 : en:00:00:00.000
    00:10:10.652 : en:00:10:10.652
    00:27:00.661 : en:00:27:00.661
    00:37:49.225 : en:00:37:49.225
    00:46:54.520 : en:00:46:54.520
    01:02:04.971 : en:01:02:04.971
    01:14:10.613 : en:01:14:10.613
    01:28:07.115 : en:01:28:07.115
    01:41:46.642 : en:01:41:46.642
    01:53:52.617 : en:01:53:52.617
    02:02:58.079 : en:02:02:58.079
    02:15:04.054 : en:02:15:04.054
    02:27:55.075 : en:02:27:55.075
    02:36:51.444 : en:02:36:51.444
    02:48:27.514 : en:02:48:27.514
    02:54:43.765 : en:02:54:43.765
10.0 из 10
голосов: 6
/10
/10
616759 9-07-2016, 07:56
Информация
Посетители, находящиеся в группе Гости, не могут оставлять комментарии к данной публикации.