Панель пользователя
Регистрация

Воспользуйтесь социальными сетями для входа на https://freerutor.com

vk odnoklassniki facebook mailru yandex google
Популярное
Счетчик
Голосуй за нас
VIP на сайте
Популярное
Товары интернет магазина
загрузка...

Костяной томагавк (2015) HDRip-AVC | Лицензия

Костяной томагавк (2015) HDRip-AVC | Лицензия
Участники торрент обмена
Сидов Пиров Скачали
2 0 353
Характеристика
Размер Файлы
2.94 GB
Поделиться раздачей
Фильмы (AVC)
Наименование: Костяной томагавк
Оригинальное наименование: Bone Tomahawk
Категория: Ужасы, триллер, драма, приключения, вестерн
Произведено: США, Великобритания / Caliber Media Company
Режиссер постановщик: С. Крэйг Залер
В главных ролях: Курт Рассел, Патрик Уилсон, Мэттью Фокс, Ричард Дженкинс, Лили Симмонс, Эван Йоникит, Дэвид Аркетт, Фред Меламед, Сид Хэйг, Маэстро Харрелл, Джеймс Толкан, Кэтрин Моррис
Краткое описание: Четверо мужчин отправляются в отдаленные земли Дикого Запада, чтобы спасти группу пленных из пещер каннибалов.
  • Видео данные: MPEG-4 AVC, 2350 Кбит/с, 1024x432
    Аудио данные: Русский (AC3, 6 ch, 384 Кбит/с), английский (AC3, 6 ch, 448 Кбит/с)
    Перевод: Дублированный [iTunes]
    Субтитры: Английские
    Продолжительность: 02:12:03
  • Костяной томагавк (2015) HDRip-AVC | Лицензия Костяной томагавк (2015) HDRip-AVC | Лицензия Костяной томагавк (2015) HDRip-AVC | Лицензия
  • Общее
    Уникальный идентификатор : 216789913846707428648782708480538940317 (0xA31837FAE0DD8C0882C1C411CCD5939D)
    Полное имя : E:Раздача-BDRipKostynoiy tomagavk.2015.HDRip.AVC.mkv
    Формат : Matroska
    Версия формата : Version 2
    Размер файла : 2,94 Гбайт
    Продолжительность : 2 ч. 12 м.
    Общий поток : 3184 Кбит/сек
    Дата кодирования : UTC 2015-12-08 00:25:51
    Программа кодирования : mkvmerge v5.8.0 ('No Sleep / Pillow') built on Sep 2 2012 15:37:04
    Библиотека кодирования : Lavc57.15.100 ac3_fixed
    _STATISTICS_WRITING_APP : mkvmerge v7.9.0 ('Birds') 64bit
    _STATISTICS_WRITING_DATE_UTC : 2015-12-07 22:43:38
    _STATISTICS_TAGS : BPS DURATION NUMBER_OF_FRAMES NUMBER_OF_BYTES
    DURATION : 02:03:28.803000000
    NUMBER_OF_FRAMES : 1311
    NUMBER_OF_BYTES : 47215
    Attachment : Yes

    Видео
    Идентификатор : 1
    Формат : AVC
    Формат/Информация : Advanced Video Codec
    Профиль формата : High@L4.1
    Параметр CABAC формата : Да
    Параметр ReFrames формата : 12 кадров
    Идентификатор кодека : V_MPEG4/ISO/AVC
    Продолжительность : 2 ч. 12 м.
    Битрейт : 2350 Кбит/сек
    Ширина : 1024 пикселя
    Высота : 432 пикселя
    Соотношение сторон : 2,40:1
    Режим частоты кадров : Постоянный
    Частота кадров : 23,976 кадра/сек
    Цветовое пространство : YUV
    Субдискретизация насыщенности : 4:2:0
    Битовая глубина : 8 бит
    Тип развёртки : Прогрессивная
    Бит/(Пиксели*Кадры) : 0.222
    Размер потока : 2,11 Гбайт (72%)
    Библиотека кодирования : x264 core 148 r2638
    Настройки программы : cabac=1 / ref=12 / deblock=1:-3:-3 / analyse=0x3:0x133 / me=umh / subme=11 / psy=1 / psy_rd=1.05:0.15 / mixed_ref=0 / me_range=48 / chroma_me=1 / trellis=2 / 8x8dct=1 / cqm=0 / deadzone=21,11 / fast_pskip=1 / chroma_qp_offset=-3 / threads=18 / lookahead_threads=3 / sliced_threads=0 / nr=0 / decimate=1 / interlaced=0 / bluray_compat=0 / constrained_intra=0 / bframes=12 / b_pyramid=2 / b_adapt=2 / b_bias=0 / direct=3 / weightb=1 / open_gop=1 / weightp=2 / keyint=239 / keyint_min=23 / scenecut=40 / intra_refresh=0 / rc_lookahead=50 / rc=2pass / mbtree=1 / bitrate=2350 / ratetol=1.0 / qcomp=0.60 / qpmin=0 / qpmax=69 / qpstep=4 / cplxblur=20.0 / qblur=0.5 / ip_ratio=1.40 / aq=3:1.00
    Язык : English
    Default : Да
    Forced : Нет
    _STATISTICS_WRITING_APP : mkvmerge v7.9.0 ('Birds') 64bit
    _STATISTICS_WRITING_DATE_UTC : 2015-12-07 22:43:38
    _STATISTICS_TAGS : BPS DURATION NUMBER_OF_FRAMES NUMBER_OF_BYTES
    DURATION : 02:12:03.833000000
    NUMBER_OF_FRAMES : 189982
    NUMBER_OF_BYTES : 2327409769

    Аудио #1
    Идентификатор : 2
    Формат : AC-3
    Формат/Информация : Audio Coding 3
    Расширение режима : CM (complete main)
    Параметр Endianness формата : Big
    Идентификатор кодека : A_AC3
    Продолжительность : 2 ч. 12 м.
    Вид битрейта : Постоянный
    Битрейт : 384 Кбит/сек
    Каналы : 6 каналов
    Расположение каналов : Front: L C R, Side: L R, LFE
    Частота : 48,0 КГц
    Битовая глубина : 16 бит
    Метод сжатия : С потерями
    Размер потока : 363 Мбайт (12%)
    Заголовок : DUB [iTunes]
    Язык : Russian
    Default : Да
    Forced : Нет

    Аудио #2
    Идентификатор : 3
    Формат : AC-3
    Формат/Информация : Audio Coding 3
    Расширение режима : CM (complete main)
    Параметр Endianness формата : Big
    Идентификатор кодека : A_AC3
    Продолжительность : 2 ч. 12 м.
    Вид битрейта : Постоянный
    Битрейт : 448 Кбит/сек
    Каналы : 6 каналов
    Расположение каналов : Front: L C R, Side: L R, LFE
    Частота : 48,0 КГц
    Битовая глубина : 16 бит
    Метод сжатия : С потерями
    Размер потока : 423 Мбайт (14%)
    Заголовок : Original
    Язык : English
    Default : Нет
    Forced : Нет

    Текст
    Идентификатор : 4
    Формат : UTF-8
    Идентификатор кодека : S_TEXT/UTF8
    Идентификатор кодека/Информация : UTF-8 Plain Text
    Язык : English
    Default : Нет
    Forced : Нет

    Меню
    00:00:00.000 : :Buddy and Purvis
    00:09:51.000 : :Sheriff Hunt
    00:24:27.000 : :Hunt and Arthur
    00:34:51.000 : :A Rescue Plan
    00:46:56.000 : :The First Night
    01:02:34.000 : :Attacked
    01:12:39.000 : :Another Setback
    01:27:48.000 : :Prepare for Battle
    01:34:13.000 : :Deputy Nick
    01:46:46.000 : :Arthur to the Rescue
    01:56:20.000 : :A Last Fight for Freedom
    02:04:48.000 : :Credits
10.0 из 10
голосов: 6
/10
/10
grab777 28-06-2016, 10:22
Информация
Посетители, находящиеся в группе Гости, не могут оставлять комментарии к данной публикации.