Панель пользователя
Регистрация

Воспользуйтесь социальными сетями для входа на https://freerutor.com

vk odnoklassniki facebook mailru yandex google
Популярное
Счетчик
Голосуй за нас
VIP на сайте
Популярное
Товары интернет магазина
загрузка...

Кловерфилд, 10 (2016) BDRip-AVC | Лицензия

Кловерфилд, 10 (2016) BDRip-AVC | Лицензия
Участники торрент обмена
Сидов Пиров Скачали
4 0 671
Характеристика
Размер Файлы
2.24 GB
Релиз группа
Поделиться раздачей
Фильмы (AVC)
Наименование: Кловерфилд, 10
Оригинальное наименование: 10 Cloverfield Lane
Категория: ужасы, фантастика, триллер, драма, детектив
Произведено: США
Режиссер постановщик: Дэн Трактенберг
В главных ролях: Джон Гудман (Howard), Мэри Элизабет Уинстэд (Michelle), Джон Галлахер мл. (Emmett), Дуглас М. Гриффин (Driver), Сюзанн Крайер (Woman), Брэдли Купер (Ben, озвучка), Сумали Монтано (Voice on Radio, озвучка), Фрэнк Моттек (Radio Broadcaster, озвучка)
Краткое описание: Проснувшись после автомобильной аварии, девушка оказывается в подвале человека, утверждающего, что он спас ей жизнь от химической атаки, которая сделала мир за пределами бункера непригодным для жизни.
  • Видео данные: MPEG-4 AVC, 2270 Кбит/с, 1024x426
    Аудио данные: Русский (AC3, 6 ch, 384 Кбит/с), английский (АС3, 6 ch, 448 Кбит/с)
    Перевод: Дубляж - [iTunes]
    Продолжительность: 01:43:34
    Субтитры: русские (FULL), английские (FULL), английские (SDH)
  • Кловерфилд, 10 (2016) BDRip-AVC | Лицензия Кловерфилд, 10 (2016) BDRip-AVC | Лицензия Кловерфилд, 10 (2016) BDRip-AVC | Лицензия
  • General
    Unique ID : 225031683967556902419043361061824797198 (0xA94B869EB05B0E3EBC90694A13929A0E)
    Complete name : D:download10.Cloverfield.Lane.2016.BDRip-AVC by schultz R.G.Resident.mkv
    Format : Matroska
    Format version : Version 4 / Version 2
    File size : 2.24 GiB
    Duration : 1h 43mn
    Overall bit rate : 3 102 Kbps
    Encoded date : UTC 2016-06-27 20:04:30
    Writing application : mkvmerge v8.9.0 ('Father Daughter') 64bit
    Writing library : libebml v1.3.3 + libmatroska v1.4.4
    DURATION : 01:42:23.386000000
    NUMBER_OF_FRAMES : 1064
    NUMBER_OF_BYTES : 29352
    _STATISTICS_WRITING_APP : mkvmerge v8.9.0 ('Father Daughter') 64bit
    _STATISTICS_WRITING_DATE_UTC : 2016-06-27 20:04:30
    _STATISTICS_TAGS : BPS DURATION NUMBER_OF_FRAMES NUMBER_OF_BYTES

    Video
    ID : 1
    Format : AVC
    Format/Info : Advanced Video Codec
    Format profile : High@L4.1
    Format settings, CABAC : Yes
    Format settings, ReFrames : 12 frames
    Codec ID : V_MPEG4/ISO/AVC
    Duration : 1h 43mn
    Bit rate : 2 270 Kbps
    Width : 1 024 pixels
    Height : 426 pixels
    Display aspect ratio : 2.40:1
    Frame rate : 23.976 fps
    Color space : YUV
    Chroma subsampling : 4:2:0
    Bit depth : 8 bits
    Scan type : Progressive
    Bits/(Pixel*Frame) : 0.217
    Stream size : 1.60 GiB (71%)
    Writing library : x264 core 146 r2538 121396c
    Encoding settings : cabac=1 / ref=12 / deblock=1:-3:-3 / analyse=0x3:0x113 / me=umh / subme=11 / psy=1 / psy_rd=1.00:0.00 / mixed_ref=1 / me_range=48 / chroma_me=1 / trellis=2 / 8x8dct=1 / cqm=0 / deadzone=21,11 / fast_pskip=0 / chroma_qp_offset=-2 / threads=12 / lookahead_threads=3 / sliced_threads=0 / nr=0 / decimate=0 / interlaced=0 / bluray_compat=0 / constrained_intra=0 / bframes=13 / b_pyramid=2 / b_adapt=2 / b_bias=0 / direct=3 / weightb=1 / open_gop=0 / weightp=2 / keyint=240 / keyint_min=23 / scenecut=40 / intra_refresh=0 / rc_lookahead=40 / rc=2pass / mbtree=1 / bitrate=2270 / ratetol=1.0 / qcomp=0.60 / qpmin=0 / qpmax=69 / qpstep=4 / cplxblur=20.0 / qblur=0.5 / vbv_maxrate=14000 / vbv_bufsize=14000 / nal_hrd=none / filler=0 / ip_ratio=1.40 / aq=1:1.00
    Language : English
    Default : Yes
    Forced : No
    DURATION : 01:43:34.802000000
    NUMBER_OF_FRAMES : 149006
    NUMBER_OF_BYTES : 1762158244
    _STATISTICS_WRITING_APP : mkvmerge v8.9.0 ('Father Daughter') 64bit
    _STATISTICS_WRITING_DATE_UTC : 2016-06-27 20:04:30
    _STATISTICS_TAGS : BPS DURATION NUMBER_OF_FRAMES NUMBER_OF_BYTES

    Audio #1
    ID : 2
    Format : AC-3
    Format/Info : Audio Coding 3
    Mode extension : CM (complete main)
    Codec ID : A_AC3
    Duration : 1h 43mn
    Bit rate mode : Constant
    Bit rate : 384 Kbps
    Channel(s) : 6 channels
    Channel positions : Front: L C R, Side: L R, LFE
    Sampling rate : 48.0 KHz
    Bit depth : 16 bits
    Compression mode : Lossy
    Stream size : 284 MiB (12%)
    Language : Russian
    Default : Yes
    Forced : No

    Audio #2
    ID : 3
    Format : AC-3
    Format/Info : Audio Coding 3
    Mode extension : CM (complete main)
    Codec ID : A_AC3
    Duration : 1h 43mn
    Bit rate mode : Constant
    Bit rate : 448 Kbps
    Channel(s) : 6 channels
    Channel positions : Front: L C R, Side: L R, LFE
    Sampling rate : 48.0 KHz
    Bit depth : 16 bits
    Compression mode : Lossy
    Stream size : 332 MiB (14%)
    Language : English
    Default : No
    Forced : No

    Text #1
    ID : 4
    Format : UTF-8
    Codec ID : S_TEXT/UTF8
    Codec ID/Info : UTF-8 Plain Text
    Title : FULL
    Language : Russian
    Default : Yes
    Forced : No

    Text #2
    ID : 5
    Format : UTF-8
    Codec ID : S_TEXT/UTF8
    Codec ID/Info : UTF-8 Plain Text
    Title : FULL
    Language : English
    Default : No
    Forced : No

    Text #3
    ID : 6
    Format : UTF-8
    Codec ID : S_TEXT/UTF8
    Codec ID/Info : UTF-8 Plain Text
    Title : SDH
    Language : English
    Default : No
    Forced : No

    Menu
    00:00:00.000 : en:Chapter 1
    00:05:55.605 : en:Chapter 2
    00:14:52.517 : en:Chapter 3
    00:19:18.157 : en:Chapter 4
    00:24:11.992 : en:Chapter 5
    00:32:21.940 : en:Chapter 6
    00:42:59.243 : en:Chapter 7
    00:47:47.740 : en:Chapter 8
    00:53:37.089 : en:Chapter 9
    00:57:00.626 : en:Chapter 10
    01:03:10.745 : en:Chapter 11
    01:11:20.193 : en:Chapter 12
    01:15:49.420 : en:Chapter 13
    01:24:21.265 : en:Chapter 14
    01:28:19.085 : en:Chapter 15
    01:37:31.512 : en:Chapter 16
9.8 из 10
голосов: 4
/10
/10
schultz 27-06-2016, 23:36

scarry | 1-07-2016, 00:46 | Статус: Оффлайн

Основой "герметичного" жанра триллера была "Пила". Затем в "герметик" совали всё и всех. И наконец в "герметик" упаковали ради спасения ... От кого?- будет ясно в финале.

schultz | 27-06-2016, 23:54 | Статус: Оффлайн

Цитата: bond74
Перевод: Дублированный

Добрый вечер Пожалуйста поправьте

preved поправил

bond74 | 27-06-2016, 23:47 | Статус: Оффлайн

Перевод: Дублированный

Добрый вечер Пожалуйста поправьте
Информация
Посетители, находящиеся в группе Гости, не могут оставлять комментарии к данной публикации.