Панель пользователя
Регистрация

Воспользуйтесь социальными сетями для входа на https://freerutor.com

vk odnoklassniki facebook mailru yandex google
Популярное
Счетчик
Голосуй за нас
VIP на сайте
Популярное
Товары интернет магазина
загрузка...

Нападение трёхголовой акулы (2015) BDRip 1080p

Нападение трёхголовой акулы (2015) BDRip 1080p
Участники торрент обмена
Сидов Пиров Скачали
1 0 227
Характеристика
Размер Файлы
6.79 GB
Поделиться раздачей
Фильмы (720,1080,Blu-Ray)
Наименование: Нападение трёхголовой акулы (Угроза из глубины 2)
Оригинальное наименование: 3-Headed Shark Attack
Категория: Ужасы, фантастика, боевик
Произведено: США / Global Asylum
Режиссер постановщик: Кристофер Рэй
В главных ролях: Карруче Тран, Джэйсон Симмонс, Роб Ван Дам, Дэнни Трехо, Доун Хэмил, Кимберли Баттиста, Карлос Хавьер Ривера, Скотт Томас Рейнольдс, Шэрон Пози
Краткое описание: Трехголовая акула нападает на маленький атолл, на котором компания друзей собралась повеселиться. И это только начало. Аппетиты растут, и она направляется к исследовательской станции, которая изучает загрязнение воды в этом районе. Сумеют ли герои противостоять этому мутанту?
  • Видео данные: MPEG-4 AVC, 9394 Кбит/с, 1920x1080
    Аудио данные: Русский (АС3, 6 ch, 384 Кбит/с), английский (DTS, 6 ch, 1152 Кбит/с)
    Перевод: Любительский одноголосый [PashaUp]
    Субтитры: Английские
    Продолжительность: 01:28:57
  • Нападение трёхголовой акулы (2015) BDRip 1080p Нападение трёхголовой акулы (2015) BDRip 1080p Нападение трёхголовой акулы (2015) BDRip 1080p
  • Общее
    Уникальный идентификатор : 222251502351385366542626903303686111540 (0xA73415154E699E3D8C2137651C32C134)
    Полное имя : Нападение трёхголовой акулы (3-Headed Shark Attack) 2015 BDRip 1080p.mkv
    Формат : Matroska
    Версия формата : Version 2
    Размер файла : 6,79 Гбайт
    Продолжительность : 1 ч. 28 м.
    Общий поток : 10,9 Мбит/сек
    Дата кодирования : UTC 2016-06-23 09:56:03
    Программа кодирования : mkvmerge v4.0.0 ('The Stars were mine') сборка от Jun 6 2010 16:18:42
    Библиотека кодирования : libebml v1.0.0 + libmatroska v1.0.0

    Видео
    Идентификатор : 1
    Формат : AVC
    Формат/Информация : Advanced Video Codec
    Профиль формата : High@L4.1
    Параметр CABAC формата : Да
    Параметр ReFrames формата : 4 кадра
    Идентификатор кодека : V_MPEG4/ISO/AVC
    Продолжительность : 1 ч. 28 м.
    Битрейт : 9394 Кбит/сек
    Ширина : 1920 пикселей
    Высота : 1080 пикселей
    Соотношение сторон : 16:9
    Режим частоты кадров : Постоянный
    Частота кадров : 23,976 (24000/1001) кадра/сек
    Цветовое пространство : YUV
    Субдискретизация насыщенности : 4:2:0
    Битовая глубина : 8 бит
    Тип развёртки : Прогрессивная
    Бит/(Пиксели*Кадры) : 0.189
    Размер потока : 5,70 Гбайт (84%)
    Библиотека кодирования : x264 core 148 r2597 e86f3a1
    Настройки программы : cabac=1 / ref=4 / deblock=1:1:1 / analyse=0x3:0x133 / me=umh / subme=8 / psy=1 / psy_rd=1.00:0.00 / mixed_ref=1 / me_range=16 / chroma_me=1 / trellis=1 / 8x8dct=1 / cqm=0 / deadzone=21,11 / fast_pskip=0 / chroma_qp_offset=-2 / threads=18 / lookahead_threads=3 / sliced_threads=0 / nr=0 / decimate=1 / interlaced=0 / bluray_compat=0 / constrained_intra=0 / bframes=3 / b_pyramid=2 / b_adapt=2 / b_bias=0 / direct=3 / weightb=1 / open_gop=0 / weightp=2 / keyint=240 / keyint_min=23 / scenecut=40 / intra_refresh=0 / rc_lookahead=50 / rc=2pass / mbtree=1 / bitrate=9394 / ratetol=1.0 / qcomp=0.60 / qpmin=0 / qpmax=69 / qpstep=4 / cplxblur=20.0 / qblur=0.5 / ip_ratio=1.40 / aq=1:1.00
    Язык : English
    Default : Нет
    Forced : Нет

    Аудио #1
    Идентификатор : 2
    Формат : AC-3
    Формат/Информация : Audio Coding 3
    Расширение режима : CM (complete main)
    Параметр Endianness формата : Big
    Идентификатор кодека : A_AC3
    Продолжительность : 1 ч. 28 м.
    Вид битрейта : Постоянный
    Битрейт : 384 Кбит/сек
    Каналы : 6 каналов
    Расположение каналов : Front: L C R, Side: L R, LFE
    Частота : 48,0 КГц
    Частота кадров : 31,250 кадров/сек (1536 spf)
    Метод сжатия : С потерями
    Размер потока : 244 Мбайт (4%)
    Заголовок : VO Морозов Павел (PashaUp)
    Язык : Russian
    Default : Нет
    Forced : Нет

    Аудио #2
    Идентификатор : 3
    Формат : DTS
    Формат/Информация : Digital Theater Systems
    Режим : 16
    Параметр Endianness формата : Big
    Идентификатор кодека : A_DTS
    Продолжительность : 1 ч. 28 м.
    Вид битрейта : Постоянный
    Битрейт : 1152 Кбит/сек
    Каналы : 6 каналов
    Расположение каналов : Front: L C R, Side: L R, LFE
    Частота : 48,0 КГц
    Частота кадров : 93,750 кадра/сек (512 spf)
    Битовая глубина : 16 бит
    Метод сжатия : С потерями
    Задержка видео : 11 мс.
    Размер потока : 733 Мбайт (11%)
    Язык : English
    Default : Нет
    Forced : Нет

    Текст
    Идентификатор : 4
    Формат : UTF-8
    Идентификатор кодека : S_TEXT/UTF8
    Идентификатор кодека/Информация : UTF-8 Plain Text
    Язык : English
    Default : Нет
    Forced : Нет
4.0 из 10
голосов: 3
/10
/10
grab777 27-06-2016, 02:23
Информация
Посетители, находящиеся в группе Гости, не могут оставлять комментарии к данной публикации.