Панель пользователя
Регистрация

Воспользуйтесь социальными сетями для входа на https://freerutor.com

vk odnoklassniki facebook mailru yandex google
Популярное
Счетчик
Голосуй за нас
VIP на сайте
Популярное
Товары интернет магазина
загрузка...

Биркебейнеры (2016) BDRip 1080p

Биркебейнеры (2016) BDRip 1080p
Участники торрент обмена
Сидов Пиров Скачали
4 0 877
Характеристика
Размер Файлы
9.20 GB
Поделиться раздачей
Фильмы (720,1080,Blu-Ray)
Наименование: Биркебейнеры
Оригинальное наименование: Birkebeinerne
Категория: Боевик, драма, приключения
Произведено: Норвегия, Paradox Film 3
Режиссер постановщик: Нильс Гёуп
В главных ролях: Якоб Офтебро, Кристофер Хивью, Пол Сверре Валхейм Хаген, Торбьорн Харр, Беньямин Хельстад, Николай Ли Кос, Ане Ульмуэн Эверли, Стиг Хенрик Хофф, Теа Софи Лок Нэсс, Андерс Дальберг, Торкель Доммерснес Сульдаль
Краткое описание: 1204 год, Норвегию раздирает гражданская война. Незаконнорожденного сына короля Хокона III Сверрессона и Инги из Вартейга хранят в глубокой тайне. Мальчик был внебрачным сыном короля и родился после его смерти, что спровоцировало кровавую междоусобицу. Биркебейнеры (ополчение, созданное его дедом, королем Сверре Сигурдсоном) признали мальчика наследником трона Норвегии. Однако католические священники объявили охоту на ребенка с целью его уничтожения.
  • Видео данные: MPEG-4 AVC, 12000 Кбит/с, 1920x816
    Аудио данные: Русский, норвежский (AC3, 6 ch, 640 Кбит/с)
    Перевод: Любительский многоголосый
    Продолжительность: 01:39:24
    Без рекламы!
  • Биркебейнеры (2016) BDRip 1080p Биркебейнеры (2016) BDRip 1080p Биркебейнеры (2016) BDRip 1080p
  • Уникальный идентификатор : 214927722687925706917351844429565793354 (0xA1B192DE06E9A66686EAE72B63EC144A)
    Полное имя : D:\Новая папкаVid\Новая_Мои раздачи\Birkebeinerne.2016.BDRip.1080p.(Мастер5) (1).mkv
    Формат : Matroska
    Версия формата : Version 4 / Version 2
    Размер файла : 9,20 Гбайт
    Продолжительность : 1 ч. 39 м.
    Общий поток : 13,3 Мбит/сек
    Название фильма : Birkebeinerne (2016). BDRip 1080p
    Дата кодирования : UTC 2016-06-25 00:00:52
    Программа кодирования : mkvmerge v7.1.0 ('Good Love') 32bit built on Jul 27 2014 12:59:18
    Библиотека кодирования : libebml v1.3.0 + libmatroska v1.4.1
    DURATION : 01:39:24.288000000
    NUMBER_OF_FRAMES : 186384
    NUMBER_OF_BYTES : 477143040
    _STATISTICS_WRITING_APP : mkvmerge v7.1.0 ('Good Love') 32bit built on Jul 27 2014 12:59:18
    _STATISTICS_WRITING_DATE_UTC : 2016-06-25 00:00:52
    _STATISTICS_TAGS : BPS DURATION NUMBER_OF_FRAMES NUMBER_OF_BYTES

    Видео
    Идентификатор : 1
    Формат : AVC
    Формат/Информация : Advanced Video Codec
    Профиль формата : High@L4.1
    Параметр CABAC формата : Да
    Параметр ReFrames формата : 5 кадров
    Идентификатор кодека : V_MPEG4/ISO/AVC
    Продолжительность : 1 ч. 39 м.
    Битрейт : 12,0 Мбит/сек
    Ширина : 1920 пикселей
    Высота : 816 пикселей
    Соотношение сторон : 2,35:1
    Соотношение сторон в оригинале : 16:9
    Режим частоты кадров : Постоянный
    Частота кадров : 24,000 кадра/сек
    Цветовое пространство : YUV
    Субдискретизация насыщенности : 4:2:0
    Битовая глубина : 8 бит
    Тип развёртки : Прогрессивная
    Бит/(Пиксели*Кадры) : 0.319
    Размер потока : 8,13 Гбайт (88%)
    Библиотека кодирования : x264 core 148 r2638 7599210
    Настройки программы : cabac=1 / ref=5 / deblock=1:-1:-1 / analyse=0x3:0x133 / me=umh / subme=11 / psy=1 / psy_rd=1.05:0.00 / mixed_ref=1 / me_range=32 / chroma_me=1 / trellis=2 / 8x8dct=1 / cqm=0 / deadzone=21,11 / fast_pskip=0 / chroma_qp_offset=-2 / threads=12 / lookahead_threads=3 / sliced_threads=0 / nr=0 / decimate=0 / interlaced=0 / bluray_compat=0 / constrained_intra=0 / bframes=16 / b_pyramid=2 / b_adapt=2 / b_bias=0 / direct=3 / weightb=1 / open_gop=0 / weightp=2 / keyint=240 / keyint_min=23 / scenecut=40 / intra_refresh=0 / rc_lookahead=60 / rc=2pass / mbtree=0 / bitrate=12000 / ratetol=1.0 / qcomp=0.70 / qpmin=10 / qpmax=51 / qpstep=4 / cplxblur=20.0 / qblur=0.5 / vbv_maxrate=62500 / vbv_bufsize=78125 / nal_hrd=none / filler=0 / ip_ratio=1.40 / pb_ratio=1.20 / aq=3:0.85
    Default : Да
    Forced : Нет

    Аудио #1
    Идентификатор : 2
    Формат : AC-3
    Формат/Информация : Audio Coding 3
    Расширение режима : CM (complete main)
    Параметр Endianness формата : Big
    Идентификатор кодека : A_AC3
    Продолжительность : 1 ч. 39 м.
    Вид битрейта : Постоянный
    Битрейт : 640 Кбит/сек
    Каналы : 6 каналов
    Расположение каналов : Front: L C R, Side: L R, LFE
    Частота : 48,0 КГц
    Битовая глубина : 16 бит
    Метод сжатия : С потерями
    Размер потока : 455 Мбайт (5%)
    Заголовок : СПД
    Язык : Russian
    Default : Да
    Forced : Нет

    Аудио #2
    Идентификатор : 3
    Формат : AC-3
    Формат/Информация : Audio Coding 3
    Расширение режима : CM (complete main)
    Параметр Endianness формата : Big
    Идентификатор кодека : A_AC3
    Продолжительность : 1 ч. 39 м.
    Вид битрейта : Постоянный
    Битрейт : 640 Кбит/сек
    Каналы : 6 каналов
    Расположение каналов : Front: L C R, Side: L R, LFE
    Частота : 48,0 КГц
    Битовая глубина : 16 бит
    Метод сжатия : С потерями
    Размер потока : 455 Мбайт (5%)
    Язык : Norwegian
    Default : Нет
    Forced : Нет

    Меню
    00:00:00.000 : en:00:00:00.000
    00:09:59.790 : en:00:09:59.790
    00:19:59.750 : en:00:19:59.750
    00:29:59.665 : en:00:29:59.665
    00:39:59.750 : en:00:39:59.750
    00:49:59.833 : en:00:49:59.833
    00:59:59.708 : en:00:59:59.708
    01:09:59.707 : en:01:09:59.707
    01:19:59.916 : en:01:19:59.916
    01:29:59.791
8.4 из 10
голосов: 8
/10
/10
616759 25-06-2016, 17:04
Информация
Посетители, находящиеся в группе Гости, не могут оставлять комментарии к данной публикации.