Панель пользователя
Регистрация

Воспользуйтесь социальными сетями для входа на https://freerutor.com

vk odnoklassniki facebook mailru yandex google
Популярное
Счетчик
Голосуй за нас
VIP на сайте
Популярное
Товары интернет магазина
загрузка...

Лунный флаг (2015) BDRip-AVC | Лицензия

Лунный флаг (2015) BDRip-AVC | Лицензия
Участники торрент обмена
Сидов Пиров Скачали
0 0 353
Характеристика
Размер Файлы
1.63 GB
Релиз группа
Поделиться раздачей
Мультфильмы
Наименование: Лунный флаг
Оригинальное наименование: Capture the Flag
Категория: мультфильм, комедия, приключения
Произведено: Испания
Режиссер постановщик: Энрике Гато
В главных ролях: Дэни Ровира (Richard Carson, озвучка), Мишель Хеннер (Amy González, озвучка), Карме Калвелл (Mike Goldwing, озвучка), Хавьер Балас (Marty Farr, озвучка), Камилло Гарсия (Frank Goldwing, озвучка), Тони Мора (Scott Goldwing, озвучка), Марта Барбара (Samantha Goldwing, озвучка), Фернандо Гарсия Кабрера (Steve Gigs, озвучка), Ксавьер Касан (Bill Gags, озвучка), Ориол Тарраго (Igor, озвучка), Рамон Каналс (Jack Farr, озвучка), Джорди Ройо (Jay Lemmon, озвучка)
Краткое описание: 12-летний Майк вместе со своими друзьями пытается спасти Луну от захвата злобным миллиардером Карсоном. Но для этого надо всего лишь... полететь в космос. Удастся ли обыкновенным подросткам пробраться на космическую базу, прилуниться и победить коварного злодея? Для этого понадобится помощь друзей, верной домашней ящерицы и родного деда. Большое космическое приключение, объединившее всю семью, начинается!
  • Видео данные: MPEG-4 AVC, 1691 Кбит/с, 1024x428
    Аудио данные: Русский (AC3, 6 ch, 384 Кбит/с), английский (АС3, 6 ch, 384 Кбит/с)
    Перевод: Дубляж - [iTunes]
    Продолжительность: 01:34:38
    Субтитры: английские (FULL), английские (SDH)
  • Лунный флаг (2015) BDRip-AVC | Лицензия Лунный флаг (2015) BDRip-AVC | Лицензия Лунный флаг (2015) BDRip-AVC | Лицензия
  • General
    Unique ID : 236329744107193883890608299838996455734 (0xB1CB73FDDF70EB5B8F64D78D38D7A136)
    Complete name : D:downloadCapture.the.Flag.2015.BDRip-AVC by schultz R.G.Resident.mkv
    Format : Matroska
    Format version : Version 4 / Version 2
    File size : 1.63 GiB
    Duration : 1h 34mn
    Overall bit rate : 2 461 Kbps
    Encoded date : UTC 2016-06-21 02:24:36
    Writing application : mkvmerge v8.9.0 ('Father Daughter') 64bit
    Writing library : libebml v1.3.3 + libmatroska v1.4.4
    DURATION : 01:28:51.636000000
    NUMBER_OF_FRAMES : 1495
    NUMBER_OF_BYTES : 40750
    _STATISTICS_WRITING_APP : mkvmerge v8.9.0 ('Father Daughter') 64bit
    _STATISTICS_WRITING_DATE_UTC : 2016-06-21 02:24:36
    _STATISTICS_TAGS : BPS DURATION NUMBER_OF_FRAMES NUMBER_OF_BYTES

    Video
    ID : 1
    Format : AVC
    Format/Info : Advanced Video Codec
    Format profile : High@L4.1
    Format settings, CABAC : Yes
    Format settings, ReFrames : 12 frames
    Codec ID : V_MPEG4/ISO/AVC
    Duration : 1h 34mn
    Bit rate : 1 691 Kbps
    Width : 1 024 pixels
    Height : 428 pixels
    Display aspect ratio : 2.40:1
    Frame rate : 23.976 fps
    Color space : YUV
    Chroma subsampling : 4:2:0
    Bit depth : 8 bits
    Scan type : Progressive
    Bits/(Pixel*Frame) : 0.161
    Stream size : 1.09 GiB (67%)
    Writing library : x264 core 146 r2538 121396c
    Encoding settings : cabac=1 / ref=12 / deblock=1:-3:-3 / analyse=0x3:0x113 / me=umh / subme=11 / psy=1 / psy_rd=1.00:0.00 / mixed_ref=1 / me_range=48 / chroma_me=1 / trellis=2 / 8x8dct=1 / cqm=0 / deadzone=21,11 / fast_pskip=0 / chroma_qp_offset=-2 / threads=12 / lookahead_threads=3 / sliced_threads=0 / nr=0 / decimate=1 / interlaced=0 / bluray_compat=0 / constrained_intra=0 / bframes=13 / b_pyramid=2 / b_adapt=2 / b_bias=0 / direct=3 / weightb=1 / open_gop=0 / weightp=2 / keyint=240 / keyint_min=23 / scenecut=40 / intra_refresh=0 / rc_lookahead=40 / rc=2pass / mbtree=1 / bitrate=1691 / ratetol=1.0 / qcomp=0.60 / qpmin=0 / qpmax=69 / qpstep=4 / cplxblur=20.0 / qblur=0.5 / vbv_maxrate=14000 / vbv_bufsize=14000 / nal_hrd=none / filler=0 / ip_ratio=1.40 / aq=1:1.00
    Language : English
    Default : Yes
    Forced : No
    DURATION : 01:34:38.974000000
    NUMBER_OF_FRAMES : 136159
    NUMBER_OF_BYTES : 1200368543
    _STATISTICS_WRITING_APP : mkvmerge v8.9.0 ('Father Daughter') 64bit
    _STATISTICS_WRITING_DATE_UTC : 2016-06-21 02:24:36
    _STATISTICS_TAGS : BPS DURATION NUMBER_OF_FRAMES NUMBER_OF_BYTES

    Audio #1
    ID : 2
    Format : AC-3
    Format/Info : Audio Coding 3
    Mode extension : CM (complete main)
    Codec ID : A_AC3
    Duration : 1h 34mn
    Bit rate mode : Constant
    Bit rate : 384 Kbps
    Channel(s) : 6 channels
    Channel positions : Front: L C R, Side: L R, LFE
    Sampling rate : 48.0 KHz
    Bit depth : 16 bits
    Compression mode : Lossy
    Stream size : 260 MiB (16%)
    Language : Russian
    Default : Yes
    Forced : No

    Audio #2
    ID : 3
    Format : AC-3
    Format/Info : Audio Coding 3
    Mode extension : CM (complete main)
    Codec ID : A_AC3
    Duration : 1h 34mn
    Bit rate mode : Constant
    Bit rate : 384 Kbps
    Channel(s) : 6 channels
    Channel positions : Front: L C R, Side: L R, LFE
    Sampling rate : 48.0 KHz
    Bit depth : 16 bits
    Compression mode : Lossy
    Stream size : 260 MiB (16%)
    Language : English
    Default : No
    Forced : No

    Text #1
    ID : 4
    Format : UTF-8
    Codec ID : S_TEXT/UTF8
    Codec ID/Info : UTF-8 Plain Text
    Title : FULL
    Language : English
    Default : Yes
    Forced : No

    Text #2
    ID : 5
    Format : UTF-8
    Codec ID : S_TEXT/UTF8
    Codec ID/Info : UTF-8 Plain Text
    Title : SDH
    Language : English
    Default : No
    Forced : No
6.5 из 10
голосов: 4
/10
/10
schultz 21-06-2016, 05:59
Информация
Посетители, находящиеся в группе Гости, не могут оставлять комментарии к данной публикации.