Панель пользователя
Регистрация

Воспользуйтесь социальными сетями для входа на https://freerutor.com

vk odnoklassniki facebook mailru yandex google
Популярное
Счетчик
Голосуй за нас
VIP на сайте
Популярное
Товары интернет магазина
загрузка...

Сезон охоты 4: Страшно глупо (2015) BDRip-AVC | Лицензия

Сезон охоты 4: Страшно глупо (2015) BDRip-AVC | Лицензия
Участники торрент обмена
Сидов Пиров Скачали
7 0 823
Характеристика
Размер Файлы
1.62 GB
Релиз группа
Поделиться раздачей
Мультфильмы
Наименование: Сезон охоты 4: Страшно глупо
Оригинальное наименование: Open Season: Scared Silly
Категория: мультфильм, комедия, приключения, семейный
Произведено: США
Режиссер постановщик: Дэвид Фейсс
В главных ролях: Уилльям Таунсенд (Elliot / Mr. Weenie, озвучка), Мелисса Штурм (Giselle, озвучка), Тревор Дивэлл (Shaw / Werewolf / Deputy #1, озвучка), Гари Чок (Ed, озвучка), Брайан Драммонд (Ian / Reilly / Tree-Hugger Man, озвучка), Кэтлин Барр (Edna / Bobbie / Tree-Hugger Lady, озвучка), Шеннон Чан-Кент (Rosie / Marcia, озвучка), Мишель Мурдокка (Maria, озвучка), Питер Келамис (Serge, озвучка), Мэттью В. Тейлор (дополнительные голоса, озвучка, в титрах не указан), Фрэнк Уэлкер (Animals' vocal effects, озвучка, в титрах не указан), Лорни Кардинал (Sheriff Gordy, озвучка)
Краткое описание: Олень Эллиот, такса Сосиска и их друзья сговариваются отучить медведя Буга бояться всего на свете. Услышав у ночного костра байку про Свирепого Волка-Оборотня, могучий гризли совсем потерял покой и стал вести себя как трусливая мышь. Из-за этого у компании срываются классные каникулы. Чтобы «спугнуть» напрасные медвежьи страхи, Эллиот и Сосиска снаряжают экспедицию в Тёмный Лес, открывая на его самого загадочного обитателя... свой сезон охоты. Но все прошлые приключения меркнут по сравнению с тем, что ждёт лесную команду в этот раз. Головокружительные погони, уморительные шутки и крутые сюжетные повороты - в первой мульт-комедии лета.
  • Видео данные: MPEG-4 AVC, 1970 Кбит/с, 1024x576
    Аудио данные: Русский (AC3, 6 ch, 384 Кбит/с), английский (АС3, 6 ch, 384 Кбит/с)
    Перевод: Дубляж - [iTunes]
    Продолжительность: 01:24:45
    Субтитры: английские (full), английские (SDH), английские (Commentary)
  • Сезон охоты 4: Страшно глупо (2015) BDRip-AVC | Лицензия Сезон охоты 4: Страшно глупо (2015) BDRip-AVC | Лицензия Сезон охоты 4: Страшно глупо (2015) BDRip-AVC | Лицензия
  • General
    Unique ID : 221015471630600821367231152050148581607 (0xA64608104B38B29E9CAFB1E695B1A0E7)
    Complete name : D:downloadCe3oH.oxoTbl.4.cTpaLLlHo.rJlyno.2015.BDRip-AVC by schultz R.G.Resident.mkv
    Format : Matroska
    Format version : Version 4 / Version 2
    File size : 1.62 GiB
    Duration : 1h 24mn
    Overall bit rate : 2 740 Kbps
    Encoded date : UTC 2016-06-14 14:22:36
    Writing application : mkvmerge v8.9.0 ('Father Daughter') 64bit
    Writing library : libebml v1.3.3 + libmatroska v1.4.4
    DURATION : 01:24:45.088000000
    NUMBER_OF_FRAMES : 158909
    NUMBER_OF_BYTES : 244084224
    _STATISTICS_WRITING_APP : mkvmerge v8.9.0 ('Father Daughter') 64bit
    _STATISTICS_WRITING_DATE_UTC : 2016-06-14 14:22:36
    _STATISTICS_TAGS : BPS DURATION NUMBER_OF_FRAMES NUMBER_OF_BYTES

    Video
    ID : 1
    Format : AVC
    Format/Info : Advanced Video Codec
    Format profile : High@L4.1
    Format settings, CABAC : Yes
    Format settings, ReFrames : 12 frames
    Codec ID : V_MPEG4/ISO/AVC
    Duration : 1h 24mn
    Bit rate : 1 970 Kbps
    Width : 1 024 pixels
    Height : 576 pixels
    Display aspect ratio : 16:9
    Frame rate : 23.976 fps
    Color space : YUV
    Chroma subsampling : 4:2:0
    Bit depth : 8 bits
    Scan type : Progressive
    Bits/(Pixel*Frame) : 0.139
    Stream size : 1.14 GiB (70%)
    Writing library : x264 core 146 r2538 121396c
    Encoding settings : cabac=1 / ref=12 / deblock=1:-3:-3 / analyse=0x3:0x113 / me=umh / subme=11 / psy=1 / psy_rd=1.00:0.00 / mixed_ref=1 / me_range=48 / chroma_me=1 / trellis=2 / 8x8dct=1 / cqm=0 / deadzone=21,11 / fast_pskip=0 / chroma_qp_offset=-2 / threads=12 / lookahead_threads=3 / sliced_threads=0 / nr=0 / decimate=1 / interlaced=0 / bluray_compat=0 / constrained_intra=0 / bframes=13 / b_pyramid=2 / b_adapt=2 / b_bias=0 / direct=3 / weightb=1 / open_gop=0 / weightp=2 / keyint=240 / keyint_min=23 / scenecut=40 / intra_refresh=0 / rc_lookahead=40 / rc=2pass / mbtree=1 / bitrate=1970 / ratetol=1.0 / qcomp=0.60 / qpmin=0 / qpmax=69 / qpstep=4 / cplxblur=20.0 / qblur=0.5 / vbv_maxrate=14000 / vbv_bufsize=14000 / nal_hrd=none / filler=0 / ip_ratio=1.40 / aq=1:1.00
    Language : English
    Default : Yes
    Forced : No
    DURATION : 01:24:45.088000000
    NUMBER_OF_FRAMES : 121920
    NUMBER_OF_BYTES : 1251942470
    _STATISTICS_WRITING_APP : mkvmerge v8.9.0 ('Father Daughter') 64bit
    _STATISTICS_WRITING_DATE_UTC : 2016-06-14 14:22:36
    _STATISTICS_TAGS : BPS DURATION NUMBER_OF_FRAMES NUMBER_OF_BYTES

    Audio #1
    ID : 2
    Format : AC-3
    Format/Info : Audio Coding 3
    Mode extension : CM (complete main)
    Codec ID : A_AC3
    Duration : 1h 24mn
    Bit rate mode : Constant
    Bit rate : 384 Kbps
    Channel(s) : 6 channels
    Channel positions : Front: L C R, Side: L R, LFE
    Sampling rate : 48.0 KHz
    Bit depth : 16 bits
    Compression mode : Lossy
    Stream size : 233 MiB (14%)
    Language : Russian
    Default : Yes
    Forced : No

    Audio #2
    ID : 3
    Format : AC-3
    Format/Info : Audio Coding 3
    Mode extension : CM (complete main)
    Codec ID : A_AC3
    Duration : 1h 24mn
    Bit rate mode : Constant
    Bit rate : 384 Kbps
    Channel(s) : 6 channels
    Channel positions : Front: L C R, Side: L R, LFE
    Sampling rate : 48.0 KHz
    Bit depth : 16 bits
    Compression mode : Lossy
    Stream size : 233 MiB (14%)
    Language : English
    Default : No
    Forced : No

    Text #1
    ID : 4
    Format : UTF-8
    Codec ID : S_TEXT/UTF8
    Codec ID/Info : UTF-8 Plain Text
    Title : FULL
    Language : English
    Default : No
    Forced : No

    Text #2
    ID : 5
    Format : UTF-8
    Codec ID : S_TEXT/UTF8
    Codec ID/Info : UTF-8 Plain Text
    Title : SDH
    Language : English
    Default : No
    Forced : No

    Text #3
    ID : 6
    Format : UTF-8
    Codec ID : S_TEXT/UTF8
    Codec ID/Info : UTF-8 Plain Text
    Title : (Commentary)
    Language : English
    Default : No
    Forced : No

    Menu #1
    00:00:00.000 : en:00:00:00.000
    00:05:02.636 : en:00:05:02.636
    00:10:01.309 : en:00:10:01.309
    00:13:58.671 : en:00:13:58.671
    00:18:57.470 : en:00:18:57.470
    00:25:54.887 : en:00:25:54.887
    00:33:20.916 : en:00:33:20.916
    00:39:17.230 : en:00:39:17.230
    00:42:02.103 : en:00:42:02.103
    00:47:39.356 : en:00:47:39.356
    00:54:00.529 : en:00:54:00.529
    00:58:00.644 : en:00:58:00.644
    01:03:17.460 : en:01:03:17.460
    01:08:40.366 : en:01:08:40.366
    01:14:53.656 : en:01:14:53.656
    01:18:20.905 : en:01:18:20.905

    Menu #2
    00:00:00.054 : en:00:00:00.054
9.8 из 10
голосов: 4
/10
/10
schultz 14-06-2016, 18:03
Информация
Посетители, находящиеся в группе Гости, не могут оставлять комментарии к данной публикации.