Панель пользователя
Регистрация

Воспользуйтесь социальными сетями для входа на https://freerutor.com

vk odnoklassniki facebook mailru yandex google
Популярное
Счетчик
Голосуй за нас
VIP на сайте
Популярное
Товары интернет магазина
загрузка...

Здравствуйте, меня зовут Дорис (2015) BDRip 720p | Лицензия

Здравствуйте, меня зовут Дорис (2015) BDRip 720p | Лицензия
Участники торрент обмена
Сидов Пиров Скачали
3 0 455
Характеристика
Размер Файлы
5.02 GB
Поделиться раздачей
Фильмы (720,1080,Blu-Ray)
Наименование: Здравствуйте, меня зовут Дорис
Оригинальное наименование: Hello, My Name Is Doris
Произведено: США
Категория: драма, мелодрама, комедия
Режиссер постановщик: Майкл Шоуолтер
В главных ролях: Салли Филд, Макс Гринфилд, Бет Берс, Норма Майклс, Стивен Рут, Венди МакЛендон-Кови, Кумэйл Нанджиани, Ребекка Високки, Тайн Дейли
Краткое описание: Дорис Миллер - типичный Нью-Йоркский офисный работник в возрасте за шестьдесят, после смерти своей матери начинает посещать семинары по самопомощи. Приняв советы от гуру мотивации, Дорис становится сексуально одержимой своим новым коллегой Джоном, который вдвое её моложе.
  • Видео данные: MPEG-4 AVC, 6783 kb/s, 1280x692
    Аудио данные: Russian: AC3, 384 kb/s (6 ch) / English: AC3, 640 kb/s (6 ch)
    Озвучивание: Профессиональное (многоголосное) [iTunes]
    Субтитры: Английские
    Продолжительность: 01:30:11
  • Здравствуйте, меня зовут Дорис (2015) BDRip 720p | Лицензия Здравствуйте, меня зовут Дорис (2015) BDRip 720p | Лицензия Здравствуйте, меня зовут Дорис (2015) BDRip 720p | Лицензия
  • General
    Unique ID : 211927733852307231957610656480190924026 (0x9F6FCBFF7D9E8400B5B4CEC56BC604FA)
    Complete name : /media/sdap/immortalseed/Torrents/MeH1a.30But.D0PiC.2O15.D.BDRip.72OP.mkv
    Format : Matroska
    Format version : Version 2
    File size : 5.02 GiB
    Duration : 1h 30mn
    Overall bit rate : 7 966 Kbps
    Encoded date : UTC 2016-06-12 19:44:09
    Writing application : mkvmerge v8.3.0 ('Over the Horizon') 64bit
    Writing library : libebml v1.3.1 + libmatroska v1.4.2
    DURATION : 01:30:11.008000000
    NUMBER_OF_FRAMES : 169094
    NUMBER_OF_BYTES : 259728384
    _STATISTICS_WRITING_APP : mkvmerge v8.3.0 ('Over the Horizon') 64bit
    _STATISTICS_WRITING_DATE_UTC : 2016-06-12 19:44:09
    _STATISTICS_TAGS : BPS DURATION NUMBER_OF_FRAMES NUMBER_OF_BYTES

    Video
    ID : 1
    Format : AVC
    Format/Info : Advanced Video Codec
    Format profile : High@L4.1
    Format settings, CABAC : Yes
    Format settings, ReFrames : 9 frames
    Codec ID : V_MPEG4/ISO/AVC
    Duration : 1h 30mn
    Bit rate : 6 783 Kbps
    Width : 1 280 pixels
    Height : 692 pixels
    Display aspect ratio : 1.85:1
    Frame rate mode : Constant
    Frame rate : 23.976 fps
    Color space : YUV
    Chroma subsampling : 4:2:0
    Bit depth : 8 bits
    Scan type : Progressive
    Bits/(Pixel*Frame) : 0.319
    Stream size : 4.27 GiB (85%)
    Writing library : x264 core 148 r2665kMod a01e339
    Encoding settings : cabac=1 / ref=9 / deblock=1:-3:-3 / analyse=0x3:0x133 / me=umh / subme=10 / psy=1 / fade_compensate=0.00 / psy_rd=1.00:0.00 / mixed_ref=1 / me_range=24 / chroma_me=1 / trellis=2 / 8x8dct=1 / cqm=0 / deadzone=21,11 / fast_pskip=0 / chroma_qp_offset=-2 / threads=12 / lookahead_threads=2 / sliced_threads=0 / nr=0 / decimate=0 / interlaced=0 / bluray_compat=0 / constrained_intra=0 / fgo=0 / bframes=9 / b_pyramid=2 / b_adapt=2 / b_bias=0 / direct=3 / weightb=1 / open_gop=0 / weightp=2 / keyint=250 / keyint_min=23 / scenecut=40 / intra_refresh=0 / rc_lookahead=60 / rc=crf / mbtree=0 / crf=16.5000 / qcomp=0.65 / qpmin=0 / qpmax=69 / qpstep=4 / vbv_maxrate=62500 / vbv_bufsize=78125 / crf_max=0.0 / nal_hrd=none / filler=0 / ip_ratio=1.30 / pb_ratio=1.20 / aq=3:0.75
    Language : English
    Default : Yes
    Forced : No
    Matrix coefficients : BT.709
    DURATION : 01:30:11.406000000
    NUMBER_OF_FRAMES : 129744
    NUMBER_OF_BYTES : 4693743442
    _STATISTICS_WRITING_APP : mkvmerge v8.3.0 ('Over the Horizon') 64bit
    _STATISTICS_WRITING_DATE_UTC : 2016-06-12 19:44:09
    _STATISTICS_TAGS : BPS DURATION NUMBER_OF_FRAMES NUMBER_OF_BYTES

    Audio #1
    ID : 2
    Format : AC-3
    Format/Info : Audio Coding 3
    Mode extension : CM (complete main)
    Format settings, Endianness : Big
    Codec ID : A_AC3
    Duration : 1h 30mn
    Bit rate mode : Constant
    Bit rate : 384 Kbps
    Channel(s) : 6 channels
    Channel positions : Front: L C R, Side: L R, LFE
    Sampling rate : 48.0 KHz
    Bit depth : 16 bits
    Compression mode : Lossy
    Stream size : 248 MiB (5%)
    Language : Russian
    Default : Yes
    Forced : No

    Audio #2
    ID : 3
    Format : AC-3
    Format/Info : Audio Coding 3
    Mode extension : CM (complete main)
    Format settings, Endianness : Big
    Codec ID : A_AC3
    Duration : 1h 30mn
    Bit rate mode : Constant
    Bit rate : 640 Kbps
    Channel(s) : 6 channels
    Channel positions : Front: L C R, Side: L R, LFE
    Sampling rate : 48.0 KHz
    Bit depth : 16 bits
    Compression mode : Lossy
    Stream size : 413 MiB (8%)
    Language : English
    Default : No
    Forced : No

    Text #1
    ID : 4
    Format : UTF-8
    Codec ID : S_TEXT/UTF8
    Codec ID/Info : UTF-8 Plain Text
    Language : English
    Default : Yes
    Forced : No

    Text #2
    ID : 5
    Format : UTF-8
    Codec ID : S_TEXT/UTF8
    Codec ID/Info : UTF-8 Plain Text
    Title : SDH
    Language : English
    Default : No
    Forced : No

    Text #3
    ID : 6
    Format : UTF-8
    Codec ID : S_TEXT/UTF8
    Codec ID/Info : UTF-8 Plain Text
    Language : French
    Default : No
    Forced : No

    Text #4
    ID : 7
    Format : UTF-8
    Codec ID : S_TEXT/UTF8
    Codec ID/Info : UTF-8 Plain Text
    Language : Spanish
    Default : No
    Forced : No

    Text #5
    ID : 8
    Format : UTF-8
    Codec ID : S_TEXT/UTF8
    Codec ID/Info : UTF-8 Plain Text
    Title : Commentary.
    Language : English
    Default : No
    Forced : No

    Menu
    00:00:00.000 : en:00:00:00.000
    00:05:45.345 : en:00:05:45.345
    00:12:47.475 : en:00:12:47.475
    00:17:47.775 : en:00:17:47.775
    00:22:08.369 : en:00:22:08.369
    00:27:04.081 : en:00:27:04.081
    00:33:12.657 : en:00:33:12.657
    00:40:25.965 : en:00:40:25.965
    00:45:13.294 : en:00:45:13.294
    00:48:59.019 : en:00:48:59.019
    00:54:45.240 : en:00:54:45.240
    01:00:46.560 : en:01:00:46.560
    01:06:50.423 : en:01:06:50.423
    01:11:14.312 : en:01:11:14.312
    01:16:17.239 : en:01:16:17.239
    01:22:07.506 : en:01:22:07.506
5.0 из 10
голосов: 1
/10
/10
karta 12-06-2016, 23:56
Информация
Посетители, находящиеся в группе Гости, не могут оставлять комментарии к данной публикации.