Панель пользователя
Регистрация

Воспользуйтесь социальными сетями для входа на https://freerutor.com

vk odnoklassniki facebook mailru yandex google
Популярное
Счетчик
Голосуй за нас
VIP на сайте
Популярное
Товары интернет магазина
загрузка...

Всевидящее око (2015) BDRip 1080p | Лицензия

Всевидящее око (2015) BDRip 1080p | Лицензия
Участники торрент обмена
Сидов Пиров Скачали
3 0 1754
Характеристика
Размер Файлы
6.95 GB
Поделиться раздачей
Фильмы (720,1080,Blu-Ray)
Наименование: Всевидящее око
Оригинальное наименование: Eye in the Sky
Категория: Триллер, драма, военный
Произведено: Великобритания, Entertainment One, Raindog Films
Режиссер постановщик: Гэвин Худ
В главных ролях: Хелен Миррен, Файза Хассан, Файза Хассан, Алекс Гафлавент, Бабу Сизей, Кейт Ликориш, Габриэлла Пинто
Краткое описание: Хелен Миррен играет полковника Пауэлл, офицера армии Великобритании которая возглавляет тайную операцию с применением беспилотного аппарата, целью которой является поимка террористов в Кении. Тщательно спланированная миссия внезапно меняет приоритеты и вместо поимки...
  • Видео данные: MPEG-4 AVC, 7821 Кбит/с, 1920x800
    Аудио данные: Русский (АС3, 6 ch, 384 Кбит/с), английский (DTS, 6 ch, 1510 Кбит/с)
    Перевод:Профессиональный многоголосый [iTunes]
    Продолжительность: 01:42:45
    Субтитры: Russian (forced), English
    Релиз без рекламы.
  • Всевидящее око (2015) BDRip 1080p | Лицензия Всевидящее око (2015) BDRip 1080p | Лицензия Всевидящее око (2015) BDRip 1080p | Лицензия
  • Общее
    Уникальный идентификатор : 249226848077379284493309501435092388343 (0xBB7F584FACDAF6D6893C54DDD03BC9F7)
    Полное имя : D:загрузкиEye.in.the.Sky.P.2015.BluRay.1080p.mkv
    Формат : Matroska
    Версия формата : Version 4 / Version 2
    Размер файла : 6,95 Гбайт
    Продолжительность : 1 ч. 42 м.
    Общий поток : 9680 Кбит/сек
    Дата кодирования : UTC 2016-06-29 19:38:10
    Программа кодирования : mkvmerge v8.3.0 ('Over the Horizon') 64bit
    Библиотека кодирования : libebml v1.3.1 + libmatroska v1.4.2

    Видео
    Идентификатор : 1
    Формат : AVC
    Формат/Информация : Advanced Video Codec
    Профиль формата : High@L4.1
    Параметр CABAC формата : Да
    Параметр ReFrames формата : 5 кадров
    Идентификатор кодека : V_MPEG4/ISO/AVC
    Продолжительность : 1 ч. 42 м.
    Битрейт : 7821 Кбит/сек
    Ширина : 1920 пикселей
    Высота : 800 пикселей
    Соотношение сторон : 2,40:1
    Режим частоты кадров : Постоянный
    Частота кадров : 23,976 кадра/сек
    Цветовое пространство : YUV
    Субдискретизация насыщенности : 4:2:0
    Битовая глубина : 8 бит
    Тип развёртки : Прогрессивная
    Бит/(Пиксели*Кадры) : 0.212
    Размер потока : 5,45 Гбайт (78%)
    Библиотека кодирования : x264 core 148 r2597 e86f3a1
    Настройки программы : cabac=1 / ref=5 / deblock=1:0:0 / analyse=0x3:0x113 / me=umh / subme=10 / psy=1 / psy_rd=1.05:0.10 / mixed_ref=1 / me_range=48 / chroma_me=1 / trellis=2 / 8x8dct=1 / cqm=0 / deadzone=21,11 / fast_pskip=0 / chroma_qp_offset=-2 / threads=12 / lookahead_threads=1 / sliced_threads=0 / nr=0 / decimate=1 / interlaced=0 / bluray_compat=0 / constrained_intra=0 / bframes=6 / b_pyramid=2 / b_adapt=2 / b_bias=0 / direct=3 / weightb=1 / open_gop=0 / weightp=2 / keyint=250 / keyint_min=23 / scenecut=40 / intra_refresh=0 / rc=2pass / mbtree=0 / bitrate=7821 / ratetol=2.0 / qcomp=0.70 / qpmin=0 / qpmax=69 / qpstep=4 / cplxblur=20.0 / qblur=0.5 / ip_ratio=1.40 / pb_ratio=1.30 / aq=2:1.00
    Default : Да
    Forced : Нет

    Аудио #1
    Идентификатор : 2
    Формат : AC-3
    Формат/Информация : Audio Coding 3
    Расширение режима : CM (complete main)
    Параметр Endianness формата : Big
    Идентификатор кодека : A_AC3
    Продолжительность : 1 ч. 42 м.
    Вид битрейта : Постоянный
    Битрейт : 384 Кбит/сек
    Каналы : 6 каналов
    Расположение каналов : Front: L C R, Side: L R, LFE
    Частота : 48,0 КГц
    Битовая глубина : 16 бит
    Метод сжатия : С потерями
    Размер потока : 282 Мбайт (4%)
    Заголовок : iTunes
    Язык : Russian
    Default : Да
    Forced : Нет

    Аудио #2
    Идентификатор : 3
    Формат : DTS
    Формат/Информация : Digital Theater Systems
    Режим : 16
    Параметр Endianness формата : Big
    Идентификатор кодека : A_DTS
    Продолжительность : 1 ч. 42 м.
    Вид битрейта : Постоянный
    Битрейт : 1509 Кбит/сек
    Каналы : 6 каналов
    Расположение каналов : Front: L C R, Side: L R, LFE
    Частота : 48,0 КГц
    Битовая глубина : 24 бит
    Метод сжатия : С потерями
    Размер потока : 1,08 Гбайт (16%)
    Язык : English
    Default : Нет
    Forced : Нет

    Текст #1
    Идентификатор : 4
    Формат : UTF-8
    Идентификатор кодека : S_TEXT/UTF8
    Идентификатор кодека/Информация : UTF-8 Plain Text
    Заголовок : forced
    Язык : Russian
    Default : Да
    Forced : Нет

    Текст #2
    Идентификатор : 5
    Формат : UTF-8
    Идентификатор кодека : S_TEXT/UTF8
    Идентификатор кодека/Информация : UTF-8 Plain Text
    Язык : English
    Default : Нет
    Forced : Нет

    Текст #3
    Идентификатор : 6
    Формат : UTF-8
    Идентификатор кодека : S_TEXT/UTF8
    Идентификатор кодека/Информация : UTF-8 Plain Text
    Язык : English
    Default : Нет
    Forced : Нет

    Меню
    00:00:00.000 : en:00:00:00.000
    00:05:23.823 : en:00:05:23.823
    00:10:50.149 : en:00:10:50.149
    00:15:12.787 : en:00:15:12.787
    00:19:07.355 : en:00:19:07.355
    00:25:23.230 : en:00:25:23.230
    00:30:22.320 : en:00:30:22.320
    00:36:55.630 : en:00:36:55.630
    00:41:49.590 : en:00:41:49.590
    00:46:48.556 : en:00:46:48.556
    00:50:25.147 : en:00:50:25.147
    00:55:24.279 : en:00:55:24.279
    00:59:34.905 : en:00:59:34.905
    01:03:25.010 : en:01:03:25.010
    01:10:24.262 : en:01:10:24.262
    01:16:51.148 : en:01:16:51.148
    01:21:32.304 : en:01:21:32.304
    01:26:15.003 : en:01:26:15.003
    01:30:03.398 : en:01:30:03.398
    01:33:42.033 : en:01:33:42.033
10.0 из 10
голосов: 1
/10
/10
karta 29-06-2016, 22:46
Информация
Посетители, находящиеся в группе Гости, не могут оставлять комментарии к данной публикации.