Панель пользователя
Регистрация

Воспользуйтесь социальными сетями для входа на https://freerutor.com

vk odnoklassniki facebook mailru yandex google
Популярное
Счетчик
Голосуй за нас
VIP на сайте
Популярное
Товары интернет магазина
загрузка...

Всевидящее око (2015) BDRip 720p | iTunes

Всевидящее око (2015) BDRip 720p | iTunes
Участники торрент обмена
Сидов Пиров Скачали
4 0 200
Характеристика
Размер Файлы
4.64 GB
Релиз группа
Поделиться раздачей
Фильмы (720,1080,Blu-Ray)
Наименование: Всевидящее око
Оригинальное наименование: Eye in the Sky
Категория: Триллер, драма, военный
Произведено: Великобритания, Entertainment One, Raindog Films
Режиссер постановщик: Гэвин Худ
В главных ролях: Хелен Миррен, Файза Хассан, Файза Хассан, Алекс Гафлавент, Бабу Сизей, Кейт Ликориш, Габриэлла Пинто
Краткое описание: Война изменилась навсегда. Новые технологии дронов позволяют проникать в ранее недоступные места и предотвращать массовые террористические атаки. Но когда завершение операции становится таким же легким как нажатие одной кнопки, встает самый трудный вопрос. Погубит ли одно решение десятки мирных жителей или же спасет тысячи жизней?
  • Видео данные: MPEG-4 AVC, 4583 Кбит/с, 1280x534
    Аудио данные: Русский (АС3, 6 ch, 384 Кбит/с), английский (DTS, 6 ch, 1510 Кбит/с)
    Перевод: Профессиональный многоголосый [iTunes]
    Субтитры: Русские (forced), английские
    Продолжительность: 01:42:45
  • Всевидящее око (2015) BDRip 720p | iTunes Всевидящее око (2015) BDRip 720p | iTunes Всевидящее око (2015) BDRip 720p | iTunes
  • General
    Unique ID : 219010664261753244910578944537143643754 (0xA4C3EB6DCD228926B46F23EB88118E6A)
    Complete name : F:VideoEye.in.the.Sky..2015.BDRip.720p.ExKinoRay.mkv
    Format : Matroska
    Format version : Version 4 / Version 2
    File size : 4.64 GiB
    Duration : 1h 42mn
    Overall bit rate : 6 469 Kbps
    Movie name : Eye.in.the.Sky..2015.BDRip.720p.ExKinoRay
    Encoded date : UTC 2016-06-30 20:04:05
    Writing application : mkvmerge v8.3.0 ('Over the Horizon') 64bit
    Writing library : libebml v1.3.1 + libmatroska v1.4.2

    Video
    ID : 1
    Format : AVC
    Format/Info : Advanced Video Codec
    Format profile : High@L4.1
    Format settings, CABAC : Yes
    Format settings, ReFrames : 12 frames
    Codec ID : V_MPEG4/ISO/AVC
    Duration : 1h 42mn
    Bit rate : 4 583 Kbps
    Width : 1 280 pixels
    Height : 534 pixels
    Display aspect ratio : 2.40:1
    Frame rate mode : Constant
    Frame rate : 23.976 (24000/1001) fps
    Color space : YUV
    Chroma subsampling : 4:2:0
    Bit depth : 8 bits
    Scan type : Progressive
    Bits/(Pixel*Frame) : 0.280
    Stream size : 3.28 GiB (71%)
    Writing library : x264 core 148 r2597 e86f3a1
    Encoding settings : cabac=1 / ref=12 / deblock=1:0:0 / analyse=0x3:0x113 / me=umh / subme=10 / psy=1 / psy_rd=1.05:0.10 / mixed_ref=1 / me_range=32 / chroma_me=1 / trellis=2 / 8x8dct=1 / cqm=0 / deadzone=21,11 / fast_pskip=0 / chroma_qp_offset=-2 / threads=12 / lookahead_threads=1 / sliced_threads=0 / nr=0 / decimate=1 / interlaced=0 / bluray_compat=0 / constrained_intra=0 / bframes=6 / b_pyramid=2 / b_adapt=2 / b_bias=0 / direct=3 / weightb=1 / open_gop=0 / weightp=2 / keyint=250 / keyint_min=23 / scenecut=40 / intra_refresh=0 / rc=2pass / mbtree=0 / bitrate=4583 / ratetol=1.0 / qcomp=0.70 / qpmin=0 / qpmax=69 / qpstep=4 / cplxblur=20.0 / qblur=0.5 / ip_ratio=1.40 / pb_ratio=1.30 / aq=2:1.00
    Language : English
    Default : Yes
    Forced : No

    Audio #1
    ID : 2
    Format : AC-3
    Format/Info : Audio Coding 3
    Mode extension : CM (complete main)
    Format settings, Endianness : Big
    Codec ID : A_AC3
    Duration : 1h 42mn
    Bit rate mode : Constant
    Bit rate : 384 Kbps
    Channel(s) : 6 channels
    Channel positions : Front: L C R, Side: L R, LFE
    Sampling rate : 48.0 KHz
    Frame rate : 31.250 fps (1536 spf)
    Compression mode : Lossy
    Stream size : 282 MiB (6%)
    Title : MVO [iTunes]
    Language : Russian
    Default : Yes
    Forced : No

    Audio #2
    ID : 3
    Format : DTS
    Format/Info : Digital Theater Systems
    Mode : 16
    Format settings, Endianness : Big
    Codec ID : A_DTS
    Duration : 1h 42mn
    Bit rate mode : Constant
    Bit rate : 1 509 Kbps
    Channel(s) : 6 channels
    Channel positions : Front: L C R, Side: L R, LFE
    Sampling rate : 48.0 KHz
    Frame rate : 93.750 fps (512 spf)
    Bit depth : 24 bits
    Compression mode : Lossy
    Stream size : 1.08 GiB (23%)
    Title : Original
    Language : English
    Default : No
    Forced : No

    Text #1
    ID : 4
    Format : UTF-8
    Codec ID : S_TEXT/UTF8
    Codec ID/Info : UTF-8 Plain Text
    Duration : 1h 24mn
    Bit rate : 9 bps
    Count of elements : 120
    Stream size : 6.01 KiB (0%)
    Language : Russian
    Default : Yes
    Forced : No

    Text #2
    ID : 5
    Format : UTF-8
    Codec ID : S_TEXT/UTF8
    Codec ID/Info : UTF-8 Plain Text
    Duration : 1h 29mn
    Bit rate : 53 bps
    Count of elements : 1024
    Stream size : 34.9 KiB (0%)
    Title : Full
    Language : English
    Default : No
    Forced : No

    Text #3
    ID : 6
    Format : UTF-8
    Codec ID : S_TEXT/UTF8
    Codec ID/Info : UTF-8 Plain Text
    Duration : 1h 31mn
    Bit rate : 56 bps
    Count of elements : 1143
    Stream size : 38.1 KiB (0%)
    Title : SDH
    Language : English
    Default : No
    Forced : No

    Menu
    00:00:00.000 : en:00:00:00.000
    00:05:23.823 : en:00:05:23.823
    00:10:50.149 : en:00:10:50.149
    00:15:12.787 : en:00:15:12.787
    00:19:07.355 : en:00:19:07.355
    00:25:23.230 : en:00:25:23.230
    00:30:22.320 : en:00:30:22.320
    00:36:55.630 : en:00:36:55.630
    00:41:49.590 : en:00:41:49.590
    00:46:48.556 : en:00:46:48.556
    00:50:25.147 : en:00:50:25.147
    00:55:24.279 : en:00:55:24.279
    00:59:34.905 : en:00:59:34.905
    01:03:25.010 : en:01:03:25.010
    01:10:24.262 : en:01:10:24.262
    01:16:51.148 : en:01:16:51.148
    01:21:32.304 : en:01:21:32.304
    01:26:15.003 : en:01:26:15.003
    01:30:03.398 : en:01:30:03.398
    01:33:42.033 : en:01:33:42.033
6.8 из 10
голосов: 8
/10
/10
Раздачу отредактировал: grab777 - 3-09-2016, 20:53
По причине: (Замена ЛД на ПМ [iTunes])
bond74 3-09-2016, 20:52
Информация
Посетители, находящиеся в группе Гости, не могут оставлять комментарии к данной публикации.