Панель пользователя
Регистрация

Воспользуйтесь социальными сетями для входа на https://freerutor.com

vk odnoklassniki facebook mailru yandex google
Популярное
Счетчик
Голосуй за нас
VIP на сайте
Популярное
Товары интернет магазина
загрузка...

Специальный полуночный выпуск (2016) BD-Remux 1080p

Специальный полуночный выпуск (2016) BD-Remux 1080p
Участники торрент обмена
Сидов Пиров Скачали
1 0 121
Характеристика
Размер Файлы
25.85 GB
Релиз группа
Поделиться раздачей
Фильмы (720,1080,Blu-Ray)
Наименование: Специальный полуночный выпуск
Оригинальное наименование: Midnight Special
Категория: Фантастика, триллер, драма, приключения
Произведено: США / Faliro House Productions, Tri-State Pictures, Warner Bros
Режиссер постановщик: Джефф Николс
В главных ролях: Майкл Шеннон, Джоэл Эдгертон, Кирстен Данст, Джейден Либерер, Адам Драйвер, Билл Кэмп, Скотт Хэйз, Сэм Шепард, Пол Спаркс, Дэвид Дженсен
Краткое описание: Отец и сын сбегают, после того, как отец узнает, что его ребенок обладает сверхъестественными способностями.
  • Видео данные: MPEG-4 AVC, 27.5 Мбит/с, 1920x1080
    Аудио данные: Русский (DTS, 6 ch, 1510 Кбит/с), (AC3, 6 ch, 448 Кбит/с), английский (DTS-HD MA, 6 ch, 3585 Кбит/с)
    Перевод: Профессиональный многоголосый [Paradox & Omskbird records]
    Субтитры: Английские
    Продолжительность: 01:50:44
    Специальный полуночный выпуск (2016) BD-Remux 1080p
  • Специальный полуночный выпуск (2016) BD-Remux 1080p Специальный полуночный выпуск (2016) BD-Remux 1080p Специальный полуночный выпуск (2016) BD-Remux 1080p
  • General
    Unique ID : 188544286743509542931974657000567967250 (0x8DD84F0B6F8DEB54841ABB99D51F8E12)
    Complete name : F:VideoMidnight.Special.2016.BDREMUX.1080p.ExKinoRay.mkv
    Format : Matroska
    Format version : Version 4 / Version 2
    File size : 25.9 GiB
    Duration : 1h 51mn
    Overall bit rate mode : Variable
    Overall bit rate : 33.1 Mbps
    Movie name : Midnight.Special.2016.BDREMUX.1080p.ExKinoRay
    Encoded date : UTC 2016-06-10 09:37:11
    Writing application : mkvmerge v8.3.0 ('Over the Horizon') 64bit
    Writing library : libebml v1.3.1 + libmatroska v1.4.2

    Video
    ID : 1
    Format : AVC
    Format/Info : Advanced Video Codec
    Format profile : High@L4.1
    Format settings, CABAC : Yes
    Format settings, ReFrames : 2 frames
    Format settings, GOP : M=1, N=10
    Codec ID : V_MPEG4/ISO/AVC
    Duration : 1h 51mn
    Bit rate mode : Variable
    Bit rate : 27.5 Mbps
    Width : 1 920 pixels
    Height : 1 080 pixels
    Display aspect ratio : 16:9
    Frame rate mode : Constant
    Frame rate : 23.976 (24000/1001) fps
    Color space : YUV
    Chroma subsampling : 4:2:0
    Bit depth : 8 bits
    Scan type : Progressive
    Bits/(Pixel*Frame) : 0.554
    Stream size : 21.5 GiB (83%)
    Title : Midnight.Special.2016.BDREMUX.1080p.ExKinoRay.***селезень***
    Language : English
    Default : No
    Forced : No

    Audio #1
    ID : 2
    Format : DTS
    Format/Info : Digital Theater Systems
    Mode : 16
    Format settings, Endianness : Big
    Codec ID : A_DTS
    Duration : 1h 51mn
    Bit rate mode : Constant
    Bit rate : 1 509 Kbps
    Channel(s) : 6 channels
    Channel positions : Front: L C R, Side: L R, LFE
    Sampling rate : 48.0 KHz
    Frame rate : 93.750 fps (512 spf)
    Bit depth : 24 bits
    Compression mode : Lossy
    Stream size : 1.18 GiB (5%)
    Title : MVO-DTS [Paradox & Omskbird records]
    Language : Russian
    Default : Yes
    Forced : No

    Audio #2
    ID : 3
    Format : AC-3
    Format/Info : Audio Coding 3
    Mode extension : CM (complete main)
    Format settings, Endianness : Big
    Codec ID : A_AC3
    Duration : 1h 51mn
    Bit rate mode : Constant
    Bit rate : 448 Kbps
    Channel(s) : 6 channels
    Channel positions : Front: L C R, Side: L R, LFE
    Sampling rate : 48.0 KHz
    Frame rate : 31.250 fps (1536 spf)
    Compression mode : Lossy
    Stream size : 359 MiB (1%)
    Title : MVO-AC3 [Paradox & Omskbird records]
    Language : Russian
    Default : No
    Forced : No

    Audio #3
    ID : 4
    Format : DTS
    Format/Info : Digital Theater Systems
    Format profile : MA / Core
    Mode : 16
    Format settings, Endianness : Big
    Codec ID : A_DTS
    Duration : 1h 51mn
    Bit rate mode : Variable / Constant
    Bit rate : 3 585 Kbps / 1 509 Kbps
    Channel(s) : 6 channels
    Channel positions : Front: L C R, Side: L R, LFE
    Sampling rate : 48.0 KHz
    Frame rate : 93.750 fps (512 spf)
    Bit depth : 24 bits
    Compression mode : Lossless / Lossy
    Stream size : 2.80 GiB (11%)
    Title : Original
    Language : English
    Default : No
    Forced : No

    Text #1
    ID : 5
    Format : UTF-8
    Codec ID : S_TEXT/UTF8
    Codec ID/Info : UTF-8 Plain Text
    Duration : 1h 44mn
    Bit rate : 26 bps
    Count of elements : 769
    Stream size : 20.4 KiB (0%)
    Title : Full
    Language : English
    Default : No
    Forced : No

    Text #2
    ID : 6
    Format : UTF-8
    Codec ID : S_TEXT/UTF8
    Codec ID/Info : UTF-8 Plain Text
    Duration : 1h 51mn
    Bit rate : 28 bps
    Count of elements : 899
    Stream size : 23.5 KiB (0%)
    Title : SDH
    Language : English
    Default : No
    Forced : No

    Menu
    00:00:00.000 : en:Chapter 1
    00:12:53.189 : en:Chapter 2
    00:23:34.413 : en:Chapter 3
    00:31:31.681 : en:Chapter 4
    00:41:39.539 : en:Chapter 5
    00:51:50.107 : en:Chapter 6
    01:01:02.242 : en:Chapter 7
    01:13:30.239 : en:Chapter 8
    01:24:15.217 : en:Chapter 9
    01:34:09.060 : en:Chapter 10
    01:46:35.014 : en:Chapter 11
7.0 из 10
голосов: 3
/10
/10
grab777 10-06-2016, 14:15
Информация
Посетители, находящиеся в группе Гости, не могут оставлять комментарии к данной публикации.