Панель пользователя
Регистрация

Воспользуйтесь социальными сетями для входа на https://freerutor.com

vk odnoklassniki facebook mailru yandex google
Популярное
Счетчик
Голосуй за нас
VIP на сайте
Популярное
Товары интернет магазина
загрузка...

Вероника. Потерянное счастье (1-16 серии из 16) (2012) HDTVRip

Вероника. Потерянное счастье (1-16 серии из 16) (2012) HDTVRip
Участники торрент обмена
Сидов Пиров Скачали
2 0 678
Характеристика
Размер Файлы
9.39 GB
Релиз группа
Поделиться раздачей
Русские сериалы
Наименование: Вероника. Потерянное счастье
Категория: Мелодрама, детектив
Произведено: Россия / Русское
Режиссер постановщик: Мирослав Малич
В главных ролях: Наталья Бардо, Александр Дьяченко, Сергей Жигунов, Мария Машкова, Ольга Волкова, Владимир Носик, Виталий Альшанский, Анатолий Журавлев, Анатолий Лобоцкий, Дмитрий Лабуш, Амаду Мамадаков, Ирина Ефремова
Краткое описание: Вероника Серова — дочь талантливого ученого и первая красавица небольшого провинциального городка Зеленогорска. Много лет девушка росла без печали и забот, соседские мальчишки наперебой сражались за ее внимание и любовь, и все прочили гордой красавице счастливое будущее. Но трагическое событие переворачивает судьбу Вероники. Внезапно она остается один на один с суровой взрослой жизнью. В паутине интриг, обмана и предательства ей придется научиться справляться с трудностями, переживать потери и бороться за себя и свою любовь…
  • Видео данные: XviD, 1613 Кбит/с, 720x400
    Аудио данные: AC3, 2 ch, 192 Кбит/с
    Перевод: Оригинал (русский)
    Продолжительность: 16 х ~ 00:45:00
  • Вероника. Потерянное счастье (1-16 серии из 16) (2012) HDTVRip Вероника. Потерянное счастье (1-16 серии из 16) (2012) HDTVRip Вероника. Потерянное счастье (1-16 серии из 16) (2012) HDTVRip
  • General
    Complete name : V:\ftp4\Videos\Veronika.Poteryannoe.schaste.2012.XviD.HDTVRip.Files-x\Veronika.Poteryannoe.schaste.01.seriya..2012.XviD.HDTVRip.Files-x.avi
    Format : AVI
    Format/Info : Audio Video Interleave
    File size : 602 MiB
    Duration : 46mn 20s
    Overall bit rate : 1 815 Kbps
    Writing application : VirtualDubMod 1.5.10.3 | www.virtualdub-fr.org || (build 2550/release)
    Writing library : VirtualDubMod build 2550/release

    Video
    ID : 0
    Format : MPEG-4 Visual
    Format profile : Advanced Simple@L5
    Format settings, BVOP : 1
    Format settings, QPel : No
    Format settings, GMC : No warppoints
    Format settings, Matrix : Default (H.263)
    Codec ID : XVID
    Codec ID/Hint : XviD
    Duration : 46mn 20s
    Bit rate : 1 613 Kbps
    Width : 720 pixels
    Height : 400 pixels
    Display aspect ratio : 16:9
    Frame rate : 25.000 fps
    Color space : YUV
    Chroma subsampling : 4:2:0
    Bit depth : 8 bits
    Scan type : Progressive
    Compression mode : Lossy
    Bits/(Pixel*Frame) : 0.224
    Stream size : 535 MiB (89%)
    Writing library : XviD 1.2.1 (UTC 2008-12-04)

    Audio
    ID : 1
    Format : AC-3
    Format/Info : Audio Coding 3
    Mode extension : CM (complete main)
    Format settings, Endianness : Big
    Codec ID : 2000
    Duration : 46mn 20s
    Bit rate mode : Constant
    Bit rate : 192 Kbps
    Channel(s) : 2 channels
    Channel positions : Front: L R
    Sampling rate : 48.0 KHz
    Bit depth : 16 bits
    Compression mode : Lossy
    Stream size : 63.6 MiB (11%)
    Alignment : Split accross interleaves
    Interleave, duration : 40 ms (1.00 video frame)
    Interleave, preload duration : 500 ms
1.0 из 10
голосов: 2
/10
/10
grab777 10-06-2016, 12:12
Информация
Посетители, находящиеся в группе Гости, не могут оставлять комментарии к данной публикации.