Панель пользователя
Регистрация

Воспользуйтесь социальными сетями для входа на https://freerutor.com

vk odnoklassniki facebook mailru yandex google
Популярное
Счетчик
Голосуй за нас
VIP на сайте
Популярное
Товары интернет магазина
загрузка...

Варкрафт (2016) BDRip 720p | Лицензия

Варкрафт (2016) BDRip 720p | Лицензия
Участники торрент обмена
Сидов Пиров Скачали
39 0 1756
Характеристика
Размер Файлы
6.36 GB
Релиз группа
Поделиться раздачей
Фильмы (720,1080,Blu-Ray)
Наименование: Варкрафт
Оригинальное наименование: Warcraft
Категория: Фэнтези, боевик, приключения
Произведено: США, Blizzard Entertainment, Atlas Entertainment, Legendary Pictures, Universal Pictures
Режиссер постановщик: Данкан Джонс
В главных ролях: Бен Фостер, Трэвис Фиммел, Пола Пэттон, Доминик Купер, Тоби Кеббелл, Роберт Казински, Дэниэл Ву, Рут Негга, Каллум Кит Ренни, Дэниэл Кадмор, Бен Шнетцер, Андре Трикоте, Патрик Сабонгуй
Краткое описание: Действие фильма будет разворачиваться на различных локациях, представленных в игровой вселенной. Фильм расскажет о первой встрече людей с орками, а точнее - о событиях Первой Войны, в которой Орда вторглась в Азерот и разорила Королевство Штормград. Создатели фильма постараются в равной степени уделить внимание обеим расам, не предоставляя одним роль героев, а другим — злодеев. В центре событий окажется конфликт между Альянсом в лице Андуина Лотара и Ордой в лице Дуротана.
  • Видео данные: MPEG-4 AVC, 4598 Кбит/с, 1280x526
    Аудио данные: Русский, английский (AC3, 6 ch, 640 Кбит/с)
    Перевод: Дублированный [Лицензия]
    Субтитры: Русские, английские
    Продолжительность: 02:03:07
  • Варкрафт (2016) BDRip 720p | Лицензия Варкрафт (2016) BDRip 720p | Лицензия Варкрафт (2016) BDRip 720p | Лицензия
  • x264 [info]: frame I:1589 Avg QP:14.93 size:133903
    x264 [info]: frame P:43517 Avg QP:16.34 size: 58216
    x264 [info]: frame B:132014 Avg QP:17.75 size: 21980

    Format : Matroska
    Format version : Version 4 / Version 2
    File size : 6.36 GiB
    Duration : 2h 3mn
    Overall bit rate : 7 399 Kbps
    Movie name : Варкрафт. (Tonik)
    Encoded date : UTC 2016-09-21 19:46:44
    Writing application : mkvmerge v7.1.0 ('Good Love') 64bit built on Jul 27 2014 13:06:55
    Writing library : libebml v1.3.0 + libmatroska v1.4.1
    DURATION : 01:43:47.305000000
    NUMBER_OF_FRAMES : 9
    NUMBER_OF_BYTES : 312
    _STATISTICS_WRITING_APP : mkvmerge v7.1.0 ('Good Love') 64bit built on Jul 27 2014 13:06:55
    _STATISTICS_WRITING_DATE_UTC : 2016-09-21 19:46:44
    _STATISTICS_TAGS : BPS DURATION NUMBER_OF_FRAMES NUMBER_OF_BYTES

    Video
    ID : 1
    Format : AVC
    Format/Info : Advanced Video Codec
    Format profile : High@L4.1
    Format settings, CABAC : Yes
    Format settings, ReFrames : 12 frames
    Codec ID : V_MPEG4/ISO/AVC
    Bit rate : 5 971 Kbps
    Width : 1 280 pixels
    Height : 528 pixels
    Display aspect ratio : 2.40:1
    Frame rate mode : Variable
    Original frame rate : 23.976 fps
    Color space : YUV
    Chroma subsampling : 4:2:0
    Bit depth : 8 bits
    Scan type : Progressive
    Writing library : x264 core 148 r2705kMod 3f5ed56
    Encoding settings : cabac=1 / ref=12 / deblock=1:-3:-3 / analyse=0x3:0x133 / me=umh / subme=10 / psy=1 / fade_compensate=0.00 / psy_rd=1.05:0.00 / mixed_ref=1 / me_range=16 / chroma_me=1 / trellis=2 / 8x8dct=1 / cqm=0 / deadzone=21,11 / fast_pskip=0 / chroma_qp_offset=-2 / threads=6 / lookahead_threads=1 / sliced_threads=0 / nr=0 / decimate=0 / interlaced=0 / bluray_compat=0 / constrained_intra=0 / fgo=0 / bframes=8 / b_pyramid=2 / b_adapt=2 / b_bias=0 / direct=3 / weightb=1 / open_gop=0 / weightp=2 / keyint=250 / keyint_min=23 / scenecut=40 / intra_refresh=0 / rc=crf / mbtree=0 / crf=16.0000 / qcomp=0.70 / qpmin=0 / qpmax=69 / qpstep=4 / ip_ratio=1.30 / pb_ratio=1.20 / aq=1:0.90 / zones=0,1395,crf=13/162485,162719,crf=13/163982,167483,crf=13
    Language : English
    Default : Yes
    Forced : No
    DURATION : 02:03:07.380000000
    NUMBER_OF_FRAMES : 177120
    NUMBER_OF_BYTES : 5647838743
    _STATISTICS_WRITING_APP : mkvmerge v7.1.0 ('Good Love') 64bit built on Jul 27 2014 13:06:55
    _STATISTICS_WRITING_DATE_UTC : 2016-09-21 19:46:44
    _STATISTICS_TAGS : BPS DURATION NUMBER_OF_FRAMES NUMBER_OF_BYTES

    Audio #1
    ID : 2
    Format : AC-3
    Format/Info : Audio Coding 3
    Mode extension : CM (complete main)
    Format settings, Endianness : Big
    Codec ID : A_AC3
    Duration : 2h 3mn
    Bit rate mode : Constant
    Bit rate : 640 Kbps
    Channel(s) : 6 channels
    Channel positions : Front: L C R, Side: L R, LFE
    Sampling rate : 48.0 KHz
    Bit depth : 16 bits
    Compression mode : Lossy
    Stream size : 564 MiB (9%)
    Language : Russian
    Default : Yes
    Forced : No

    Audio #2
    ID : 3
    Format : AC-3
    Format/Info : Audio Coding 3
    Mode extension : CM (complete main)
    Format settings, Endianness : Big
    Codec ID : A_AC3
    Duration : 2h 3mn
    Bit rate mode : Constant
    Bit rate : 640 Kbps
    Channel(s) : 6 channels
    Channel positions : Front: L C R, Side: L R, LFE
    Sampling rate : 48.0 KHz
    Bit depth : 16 bits
    Compression mode : Lossy
    Stream size : 564 MiB (9%)
    Language : English
    Default : No
    Forced : No

    Text #1
    ID : 4
    Format : UTF-8
    Codec ID : S_TEXT/UTF8
    Codec ID/Info : UTF-8 Plain Text
    Title : Forced
    Language : Russian
    Default : Yes
    Forced : No

    Text #2
    ID : 5
    Format : UTF-8
    Codec ID : S_TEXT/UTF8
    Codec ID/Info : UTF-8 Plain Text
    Language : Russian
    Default : No
    Forced : No

    Text #3
    ID : 6
    Format : UTF-8
    Codec ID : S_TEXT/UTF8
    Codec ID/Info : UTF-8 Plain Text
    Language : English
    Default : No
    Forced : No

    Text #4
    ID : 7
    Format : UTF-8
    Codec ID : S_TEXT/UTF8
    Codec ID/Info : UTF-8 Plain Text
    Title : SDH
    Language : English
    Default : No
    Forced : No

    Menu
    00:00:00.000 : en:Chapter 1
    00:09:27.000 : en:Chapter 2
    00:15:51.000 : en:Chapter 3
    00:22:38.000 : en:Chapter 4
    00:29:18.000 : en:Chapter 5
    00:38:44.000 : en:Chapter 6
    00:46:45.000 : en:Chapter 7
    00:53:04.000 : en:Chapter 8
    00:56:19.000 : en:Chapter 9
    01:02:45.000 : en:Chapter 10
    01:07:50.000 : en:Chapter 11
    01:12:26.000 : en:Chapter 12
    01:17:14.000 : en:Chapter 13
    01:22:47.000 : en:Chapter 14
    01:26:34.000 : en:Chapter 15
    01:32:31.000 : en:Chapter 16
    01:40:23.000 : en:Chapter 17
    01:47:38.000 : en:Chapter 18
    01:51:13.000 : en:Chapter 19
    01:53:59.000 : en:Chapter 20
8.3 из 10
голосов: 24
/10
/10
karta 21-09-2016, 23:41
Информация
Посетители, находящиеся в группе Гости, не могут оставлять комментарии к данной публикации.