Панель пользователя
Регистрация

Воспользуйтесь социальными сетями для входа на https://freerutor.com

vk odnoklassniki facebook mailru yandex google
Популярное
Счетчик
Голосуй за нас
VIP на сайте
Популярное
Товары интернет магазина
загрузка...

Образцовый самец 2 (2016) BDRip-AVC | Лицензия

Образцовый самец 2 (2016) BDRip-AVC | Лицензия
Участники торрент обмена
Сидов Пиров Скачали
5 0 1252
Характеристика
Размер Файлы
1.91 GB
Релиз группа
Поделиться раздачей
Фильмы (AVC)
Наименование: Образцовый самец 2
Оригинальное наименование: Zoolander 2
Категория: комедия
Произведено: США
Режиссер постановщик: Бен Стиллер
В главных ролях: Бен Стиллер (Derek), Оуэн Уилсон (Hansel), Пенелопа Крус (Valentina Valencia), Кристен Уиг (Alexanya Atoz), Уилл Феррелл (Jacobim Mugatu), Бенедикт Камбербэтч (All), Джастин Бибер (Justin Bieber), Джон Дэйли (Agent Filippo), Кэти Курик (Katie Couric), Эми Стиллер (Mom Tourist), Шарлотта Таунсенд (Girl Tourist), Кристин Тейлор (Matilda)
Краткое описание: Триумфальное возвращение на подиумы когда-то топовых, а ныне слегка потрепанных мужчин-моделей Дерека Зуландера и Ханселя в комедии о мире, где для обретения всеобщей популярности достаточно одного селфи.
  • Видео данные: MPEG-4 AVC, 1914 Кбит/с, 1024x428
    Аудио данные: Русский (AC3, 6 ch, 384 Кбит/с), английский (АС3, 6 ch, 384 Кбит/с)
    Перевод: Дубляж - [iTunes]
    Продолжительность: 01:41:47
    Субтитры: английские (full), английские (SDH)
  • Образцовый самец 2 (2016) BDRip-AVC | Лицензия Образцовый самец 2 (2016) BDRip-AVC | Лицензия Образцовый самец 2 (2016) BDRip-AVC | Лицензия
  • General
    Unique ID : 178867364346766153909198515896611918820 (0x869099EF3FD79C2AB37792BDB58653E4)
    Complete name : D:downloadZoolander.2.2016.BDRip-AVC by schultz R.G.Resident.mkv
    Format : Matroska
    Format version : Version 4 / Version 2
    File size : 1.91 GiB
    Duration : 1h 41mn
    Overall bit rate : 2 684 Kbps
    Encoded date : UTC 2016-06-06 22:52:48
    Writing application : mkvmerge v8.9.0 ('Father Daughter') 64bit
    Writing library : libebml v1.3.3 + libmatroska v1.4.4
    DURATION : 01:41:47.584000000
    NUMBER_OF_FRAMES : 190862
    NUMBER_OF_BYTES : 293164032
    _STATISTICS_WRITING_APP : mkvmerge v8.9.0 ('Father Daughter') 64bit
    _STATISTICS_WRITING_DATE_UTC : 2016-06-06 22:52:48
    _STATISTICS_TAGS : BPS DURATION NUMBER_OF_FRAMES NUMBER_OF_BYTES

    Video
    ID : 1
    Format : AVC
    Format/Info : Advanced Video Codec
    Format profile : High@L4.1
    Format settings, CABAC : Yes
    Format settings, ReFrames : 12 frames
    Codec ID : V_MPEG4/ISO/AVC
    Duration : 1h 41mn
    Bit rate : 1 914 Kbps
    Width : 1 024 pixels
    Height : 428 pixels
    Display aspect ratio : 2.40:1
    Frame rate : 23.976 fps
    Color space : YUV
    Chroma subsampling : 4:2:0
    Bit depth : 8 bits
    Scan type : Progressive
    Bits/(Pixel*Frame) : 0.182
    Stream size : 1.32 GiB (69%)
    Writing library : x264 core 146 r2538 121396c
    Encoding settings : cabac=1 / ref=12 / deblock=1:-3:-3 / analyse=0x3:0x113 / me=umh / subme=11 / psy=1 / psy_rd=1.00:0.00 / mixed_ref=1 / me_range=48 / chroma_me=1 / trellis=2 / 8x8dct=1 / cqm=0 / deadzone=21,11 / fast_pskip=0 / chroma_qp_offset=-2 / threads=12 / lookahead_threads=3 / sliced_threads=0 / nr=0 / decimate=0 / interlaced=0 / bluray_compat=0 / constrained_intra=0 / bframes=13 / b_pyramid=2 / b_adapt=2 / b_bias=0 / direct=3 / weightb=1 / open_gop=0 / weightp=2 / keyint=240 / keyint_min=23 / scenecut=40 / intra_refresh=0 / rc_lookahead=40 / rc=2pass / mbtree=1 / bitrate=1914 / ratetol=1.0 / qcomp=0.60 / qpmin=0 / qpmax=69 / qpstep=4 / cplxblur=20.0 / qblur=0.5 / vbv_maxrate=14000 / vbv_bufsize=14000 / nal_hrd=none / filler=0 / ip_ratio=1.40 / aq=1:1.00
    Language : English
    Default : Yes
    Forced : No
    DURATION : 01:41:47.570000000
    NUMBER_OF_FRAMES : 146435
    NUMBER_OF_BYTES : 1460960275
    _STATISTICS_WRITING_APP : mkvmerge v8.9.0 ('Father Daughter') 64bit
    _STATISTICS_WRITING_DATE_UTC : 2016-06-06 22:52:48
    _STATISTICS_TAGS : BPS DURATION NUMBER_OF_FRAMES NUMBER_OF_BYTES

    Audio #1
    ID : 2
    Format : AC-3
    Format/Info : Audio Coding 3
    Mode extension : CM (complete main)
    Codec ID : A_AC3
    Duration : 1h 41mn
    Bit rate mode : Constant
    Bit rate : 384 Kbps
    Channel(s) : 6 channels
    Channel positions : Front: L C R, Side: L R, LFE
    Sampling rate : 48.0 KHz
    Bit depth : 16 bits
    Compression mode : Lossy
    Delay relative to video : 2s 7ms
    Stream size : 280 MiB (14%)
    Language : Russian
    Default : Yes
    Forced : No

    Audio #2
    ID : 3
    Format : AC-3
    Format/Info : Audio Coding 3
    Mode extension : CM (complete main)
    Codec ID : A_AC3
    Duration : 1h 41mn
    Bit rate mode : Constant
    Bit rate : 384 Kbps
    Channel(s) : 6 channels
    Channel positions : Front: L C R, Side: L R, LFE
    Sampling rate : 48.0 KHz
    Bit depth : 16 bits
    Compression mode : Lossy
    Stream size : 280 MiB (14%)
    Language : English
    Default : No
    Forced : No

    Text #1
    ID : 4
    Format : UTF-8
    Codec ID : S_TEXT/UTF8
    Codec ID/Info : UTF-8 Plain Text
    Title : full
    Language : English
    Default : No
    Forced : No

    Text #2
    ID : 5
    Format : UTF-8
    Codec ID : S_TEXT/UTF8
    Codec ID/Info : UTF-8 Plain Text
    Title : SDH
    Language : English
    Default : No
    Forced : No

    Menu
    00:00:00.000 : en:Chapter 1
    00:07:40.877 : en:Chapter 2
    00:12:25.370 : en:Chapter 3
    00:15:26.217 : en:Chapter 4
    00:22:49.868 : en:Chapter 5
    00:28:41.136 : en:Chapter 6
    00:31:07.074 : en:Chapter 7
    00:36:42.617 : en:Chapter 8
    00:42:54.614 : en:Chapter 9
    00:48:54.974 : en:Chapter 10
    00:56:57.039 : en:Chapter 11
    01:07:00.225 : en:Chapter 12
    01:14:33.010 : en:Chapter 13
    01:18:17.067 : en:Chapter 14
    01:23:42.226 : en:Chapter 15
    01:33:15.548 : en:Chapter 16
10.0 из 10
голосов: 3
/10
/10
schultz 7-06-2016, 02:32
Информация
Посетители, находящиеся в группе Гости, не могут оставлять комментарии к данной публикации.