Панель пользователя
Регистрация

Воспользуйтесь социальными сетями для входа на https://freerutor.com

vk odnoklassniki facebook mailru yandex google
Популярное
Счетчик
Голосуй за нас
VIP на сайте
Популярное
Товары интернет магазина
загрузка...

13 часов: Тайные солдаты Бенгази (2016) BDRip-AVC | Лицензия

13 часов: Тайные солдаты Бенгази (2016) BDRip-AVC | Лицензия
Участники торрент обмена
Сидов Пиров Скачали
0 0 377
Характеристика
Размер Файлы
3.38 GB
Поделиться раздачей
Фильмы (AVC)
Наименование: 13 часов: Тайные солдаты Бенгази
Оригинальное наименование: 13 Hours: The Secret Soldiers of Benghazi
Категория: Боевик, триллер, драма, военный
Произведено: США / 3 Arts Entertainment, Dune Films, Latina Pictures
Режиссер постановщик: Майкл Бэй
В главных ролях: Джон Красински, Джеймс Бэдж Дэйл, Пабло Шрайбер, Дэвид Денман, Доминик Фумуса, Макс Мартини, Алексия Бальер, Дэвид Костабайл, Пейман Моаади, Мэтт Летчер
Краткое описание: 2012 год. Бенгази, Ливия. Группа террористов решает «отпраздновать» события 11 сентября нападением на американское посольство. Шестерке бойцов из элитного спецотряда приказано вмешаться только в крайнем случае. Но когда под угрозой десятки жизней, долг и совесть берут верх над субординацией. И мужественные солдаты без колебаний вступают в бой с яростной группировкой боевиков. Бой, который для всех шестерых, скорее всего, станет последним.
  • Видео данные: MPEG-4 AVC, 2456 Кбит/с, 1024x426
    Аудио данные: Русский, английский (AC3, 6 ch, 448 Кбит/с)
    Перевод: Дублированный [Лицензия]
    Субтитры: Английские
    Продолжительность: 02:24:49
  • 13 часов: Тайные солдаты Бенгази (2016) BDRip-AVC | Лицензия 13 часов: Тайные солдаты Бенгази (2016) BDRip-AVC | Лицензия 13 часов: Тайные солдаты Бенгази (2016) BDRip-AVC | Лицензия
  • Общее
    Уникальный идентификатор : 241698283492109978310839047760944105454 (0xB5D5656B4B92DE67BEA5B07B9C0107EE)
    Полное имя : C:\13.Hours.The.Secret.Soldiers.of.Benghazi.2016.BDRip.AVC.by bog3417.mkv
    Формат : Matroska
    Версия формата : Version 2
    Размер файла : 3,38 Гбайт
    Продолжительность : 2 ч. 24 м.
    Общий поток : 3353 Кбит/сек
    Название фильма : by bog3417
    Дата кодирования : UTC 2016-06-03 12:57:07
    Программа кодирования : mkvmerge v7.9.0 ('Birds') 64bit
    Библиотека кодирования : libebml v1.3.1 + libmatroska v1.4.2

    Видео
    Идентификатор : 1
    Формат : AVC
    Формат/Информация : Advanced Video Codec
    Профиль формата : High@L4.1
    Параметр CABAC формата : Да
    Параметр ReFrames формата : 10 кадров
    Идентификатор кодека : V_MPEG4/ISO/AVC
    Продолжительность : 2 ч. 24 м.
    Битрейт : 2456 Кбит/сек
    Ширина : 1024 пикселя
    Высота : 426 пикселей
    Соотношение сторон : 2,40:1
    Режим частоты кадров : Постоянный
    Частота кадров : 23,976 (23976/1000) кадра/сек
    Цветовое пространство : YUV
    Субдискретизация насыщенности : 4:2:0
    Битовая глубина : 8 бит
    Тип развёртки : Прогрессивная
    Бит/(Пиксели*Кадры) : 0.235
    Размер потока : 2,41 Гбайт (71%)
    Заголовок : by bog3417
    Библиотека кодирования : x264 core 148 r2638 7599210
    Настройки программы : cabac=1 / ref=10 / deblock=1:-3:-3 / analyse=0x3:0x133 / me=umh / subme=11 / psy=1 / psy_rd=1.00:0.00 / mixed_ref=1 / me_range=48 / chroma_me=1 / trellis=2 / 8x8dct=1 / cqm=0 / deadzone=21,11 / fast_pskip=0 / chroma_qp_offset=-2 / threads=12 / lookahead_threads=2 / sliced_threads=0 / nr=0 / decimate=0 / interlaced=0 / bluray_compat=0 / constrained_intra=0 / bframes=9 / b_pyramid=2 / b_adapt=2 / b_bias=0 / direct=3 / weightb=1 / open_gop=1 / weightp=2 / keyint=240 / keyint_min=23 / scenecut=40 / intra_refresh=0 / rc=2pass / mbtree=0 / bitrate=2456 / ratetol=1.0 / qcomp=0.60 / qpmin=0 / qpmax=69 / qpstep=4 / cplxblur=20.0 / qblur=0.5 / ip_ratio=1.40 / pb_ratio=1.30 / aq=3:0.80
    Язык : English
    Default : Да
    Forced : Нет

    Аудио #1
    Идентификатор : 2
    Формат : AC-3
    Формат/Информация : Audio Coding 3
    Расширение режима : CM (complete main)
    Параметр Endianness формата : Big
    Идентификатор кодека : A_AC3
    Продолжительность : 2 ч. 24 м.
    Вид битрейта : Постоянный
    Битрейт : 448 Кбит/сек
    Каналы : 6 каналов
    Расположение каналов : Front: L C R, Side: L R, LFE
    Частота : 48,0 КГц
    Частота кадров : 31,250 кадров/сек (1536 spf)
    Метод сжатия : С потерями
    Размер потока : 463 Мбайт (13%)
    Язык : Russian
    Default : Да
    Forced : Нет

    Аудио #2
    Идентификатор : 3
    Формат : AC-3
    Формат/Информация : Audio Coding 3
    Расширение режима : CM (complete main)
    Параметр Endianness формата : Big
    Идентификатор кодека : A_AC3
    Продолжительность : 2 ч. 24 м.
    Вид битрейта : Постоянный
    Битрейт : 448 Кбит/сек
    Каналы : 6 каналов
    Расположение каналов : Front: L C R, Side: L R, LFE
    Частота : 48,0 КГц
    Частота кадров : 31,250 кадров/сек (1536 spf)
    Метод сжатия : С потерями
    Размер потока : 463 Мбайт (13%)
    Язык : English
    Default : Нет
    Forced : Нет

    Текст #1
    Идентификатор : 4
    Формат : UTF-8
    Идентификатор кодека : S_TEXT/UTF8
    Идентификатор кодека/Информация : UTF-8 Plain Text
    Заголовок : Forced
    Язык : Russian
    Default : Да
    Forced : Нет

    Текст #2
    Идентификатор : 5
    Формат : UTF-8
    Идентификатор кодека : S_TEXT/UTF8
    Идентификатор кодека/Информация : UTF-8 Plain Text
    Язык : English
    Default : Нет
    Forced : Нет

    Меню
    00:00:00.000 : en:Chapter 01
    00:04:47.662 : en:Chapter 02
    00:09:01.541 : en:Chapter 03
    00:15:31.556 : en:Chapter 04
    00:21:12.229 : en:Chapter 05
    00:26:48.774 : en:Chapter 06
    00:31:22.756 : en:Chapter 07
    00:34:20.058 : en:Chapter 08
    00:39:36.124 : en:Chapter 09
    00:47:12.872 : en:Chapter 10
    00:53:59.027 : en:Chapter 11
    01:02:27.744 : en:Chapter 12
    01:10:03.324 : en:Chapter 13
    01:23:02.477 : en:Chapter 14
    01:27:11.101 : en:Chapter 15
    01:34:50.685 : en:Chapter 16
    01:42:36.359 : en:Chapter 17
    01:48:08.148 : en:Chapter 18
    01:53:47.279 : en:Chapter 19
    02:00:22.882 : en:Chapter 20
    02:07:19.465 : en:Chapter 21
    02:18:25.422 : en:Chapter 22
5.0 из 10
голосов: 1
/10
/10
grab777 4-06-2016, 16:50
Информация
Посетители, находящиеся в группе Гости, не могут оставлять комментарии к данной публикации.