Панель пользователя
Регистрация

Воспользуйтесь социальными сетями для входа на https://freerutor.com

vk odnoklassniki facebook mailru yandex google
Популярное
Счетчик
Голосуй за нас
VIP на сайте
Популярное
Товары интернет магазина
загрузка...

Экипаж (2016) BDRip-AVC | Лицензия

Экипаж (2016) BDRip-AVC | Лицензия
Участники торрент обмена
Сидов Пиров Скачали
497 12 40326
Характеристика
Размер Файлы
3.24 GB
Релиз группа
Поделиться раздачей
Фильмы (AVC)
Наименование: Экипаж
Категория: Драма, приключения, триллер
Произведено: Россия, Студия Тритэ
Режиссер постановщик: Николай Лебедев (IV)
В главных ролях: Данила Козловский, Владимир Машков, Агне Грудите, Сергей Кемпо, Катерина Шпица, Сергей Шакуров, Сергей Газаров, Елена Яковлева, Алёна Бабенко, Сергей Романович, Ксения Георгиади, Ирина Лачина, Вячеслав Разбегаев, Владимир Яглыч, Василий Мищенко, Дмитрий Золотухин, Ирина Пегова, Иван Агапов, Ольга Литвинова, Ирина Низина
Краткое описание: Молодой и талантливый лётчик Алексей Гущин из-за своего неуступчивого характера не смог удержаться ни в военной, ни в грузовой авиации. Начальство не желает видеть в своих рядах подчинённого, который готов оспаривать приказы, даже если те действительно абсурдны. Наконец, при помощи отца он устраивается на работу в пассажирскую авиакомпанию в экипаж строгого Леонида Зинченко, профессионала, чья дисциплина и неукоснительное следование правилам стали уже легендарными. Роль второго пилота не очень нравится своенравному Гущину, у которого на всё своё мнение, но, тем не менее, пилоты уживаются и начинают спокойно работать.
Всё было нормально до случая со скандалом на борту, когда Алексей усмирил зарвавшегося VIP-пассажира. Тот оказывается одним из совладельцев компании, и лётчик попадает в опалу. Вместо увольнения, которого удалось избежать по просьбе Зинченко, экипаж отправляют далеко от престижных маршрутов. Их новая задача – возить пассажиров между архипелагами в Тихом океане, где ведутся большие горнопромышленные работы. В один из дней рутинные перелёты прерваны экстренным вызовом – на одном из островов началось сильнейшее извержение вулкана. Чтобы спасти людей от раскалённой лавы, у наших лётчиков есть всего один шанс. Теперь нужно забыть о былых разногласиях, собраться и выполнить всё от них зависящее на пределе своих возможностей.
  • Видео данные: MPEG-4 AVC, 2945 Кбит/с, 1024x438
    Аудио данные: AC3, 6 ch, 448 Кбит/с
    Перевод: Оригинал
    Продолжительность: 02:17:11
  • Экипаж (2016) BDRip-AVC | Лицензия Экипаж (2016) BDRip-AVC | Лицензия Экипаж (2016) BDRip-AVC | Лицензия
  • Общее
    Уникальный идентификатор : 176675990848685469606511054275969578118 (0x84EA8EE125BCC231988711C8EAF47486)
    Полное имя : D:ЗагрузкиEkipazh.2016.x264.BDRip.(AVC).ExKinoRay.mkv
    Формат : Matroska
    Версия формата : Version 2
    Размер файла : 3,24 Гбайт
    Продолжительность : 2 ч. 17 м.
    Общий поток : 3386 Кбит/сек
    Название фильма : Экипаж.2016.Rip by: ollan
    Дата кодирования : UTC 2016-06-01 17:07:57
    Программа кодирования : mkvmerge v5.6.0 ('Kenya Kane') built on May 27 2012 16:44:04
    Библиотека кодирования : libebml v1.2.3 + libmatroska v1.3.0
    Attachements : Cover - Ekipazh..png

    Видео
    Идентификатор : 1
    Формат : AVC
    Формат/Информация : Advanced Video Codec
    Профиль формата : High@L4.1
    Параметр CABAC формата : Да
    Параметр ReFrames формата : 12 кадров
    Идентификатор кодека : V_MPEG4/ISO/AVC
    Продолжительность : 2 ч. 17 м.
    Битрейт : 2945 Кбит/сек
    Ширина : 1024 пикселя
    Высота : 438 пикселей
    Соотношение сторон : 2,35:1
    Режим частоты кадров : Постоянный
    Частота кадров : 24,000 кадра/сек
    Цветовое пространство : YUV
    Субдискретизация насыщенности : 4:2:0
    Битовая глубина : 8 бит
    Тип развёртки : Прогрессивная
    Бит/(Пиксели*Кадры) : 0.274
    Размер потока : 2,75 Гбайт (85%)
    Библиотека кодирования : x264 core 146 r2538 121396c
    Настройки программы : cabac=1 / ref=12 / deblock=1:-3:-3 / analyse=0x3:0x133 / me=umh / subme=11 / psy=1 / psy_rd=0.98:0.10 / mixed_ref=1 / me_range=48 / chroma_me=1 / trellis=2 / 8x8dct=1 / cqm=0 / deadzone=21,11 / fast_pskip=0 / chroma_qp_offset=-3 / threads=12 / lookahead_threads=2 / sliced_threads=0 / nr=0 / decimate=0 / interlaced=0 / bluray_compat=0 / constrained_intra=0 / bframes=9 / b_pyramid=2 / b_adapt=2 / b_bias=0 / direct=3 / weightb=1 / open_gop=0 / weightp=2 / keyint=240 / keyint_min=23 / scenecut=40 / intra_refresh=0 / rc_lookahead=40 / rc=2pass / mbtree=0 / bitrate=2945 / ratetol=1.0 / qcomp=0.60 / qpmin=0 / qpmax=69 / qpstep=4 / cplxblur=20.0 / qblur=0.5 / vbv_maxrate=50000 / vbv_bufsize=62500 / nal_hrd=none / filler=0 / ip_ratio=1.40 / pb_ratio=1.30 / aq=1:1.00
    Язык : Russian
    Default : Да
    Forced : Нет

    Аудио
    Идентификатор : 2
    Формат : AC-3
    Формат/Информация : Audio Coding 3
    Расширение режима : CM (complete main)
    Параметр Endianness формата : Big
    Идентификатор кодека : A_AC3
    Продолжительность : 2 ч. 17 м.
    Вид битрейта : Постоянный
    Битрейт : 448 Кбит/сек
    Каналы : 6 каналов
    Расположение каналов : Front: L C R, Side: L R, LFE
    Частота : 48,0 КГц
    Частота кадров : 31,250 кадров/сек (1536 spf)
    Метод сжатия : С потерями
    Размер потока : 440 Мбайт (13%)
    Язык : Russian
    Default : Да
    Forced : Нет

    Меню
    00:00:00.000 : ru:Chapter 01
    00:05:00.000 : ru:Chapter 02
    00:10:00.000 : ru:Chapter 03
    00:15:00.000 : ru:Chapter 04
    00:20:00.000 : ru:Chapter 05
    00:25:00.000 : ru:Chapter 06
    00:30:00.000 : ru:Chapter 07
    00:35:00.000 : ru:Chapter 08
    00:40:00.000 : ru:Chapter 09
    00:45:00.000 : ru:Chapter 10
    00:50:00.000 : ru:Chapter 11
    00:55:00.000 : ru:Chapter 12
    01:00:00.000 : ru:Chapter 13
    01:05:00.000 : ru:Chapter 14
    01:10:00.000 : ru:Chapter 15
    01:15:00.000 : ru:Chapter 16
    01:20:00.000 : ru:Chapter 17
    01:25:00.000 : ru:Chapter 18
    01:30:00.000 : ru:Chapter 19
    01:35:00.000 : ru:Chapter 20
    01:40:00.000 : ru:Chapter 21
    01:45:00.000 : ru:Chapter 22
    01:50:00.000 : ru:Chapter 23
    01:55:00.000 : ru:Chapter 24
    02:00:00.000 : ru:Chapter 25
    02:05:00.000 : ru:Chapter 26
    02:10:00.000 : ru:Chapter 27
    02:15:00.000 : ru:Chapter 28
6.8 из 10
голосов: 22
/10
/10
616759 4-06-2016, 16:08

runetzone | 21-07-2016, 14:22 | Статус: Оффлайн

Фильм - СУПЕР!!! Спасибо!!!

616759 | 10-06-2016, 21:13 | Статус: Оффлайн

Цитата: Nice
Рип кривой: периодически встречаются куски с пропущенными кадрами, например на 00:24:12.

Вы не правы.. рип прямой.. лично проверен. 00:24:12 какие кадры пропущены не понял.

Nice | 10-06-2016, 01:23 | Статус: Оффлайн

Рип кривой: периодически встречаются куски с пропущенными кадрами, например на 00:24:12.
Информация
Посетители, находящиеся в группе Гости, не могут оставлять комментарии к данной публикации.