Панель пользователя
Регистрация

Воспользуйтесь социальными сетями для входа на https://freerutor.com

vk odnoklassniki facebook mailru yandex google
Популярное
Счетчик
Голосуй за нас
VIP на сайте
Популярное
Товары интернет магазина
загрузка...

Падение Лондона (2016) BDRip-AVC | Лицензия

Падение Лондона (2016) BDRip-AVC | Лицензия
Участники торрент обмена
Сидов Пиров Скачали
50 0 5887
Характеристика
Размер Файлы
2.07 GB
Релиз группа
Поделиться раздачей
Фильмы (AVC)
Наименование: Падение Лондона
Оригинальное наименование: London Has Fallen
Категория: боевик, триллер, драма, криминал
Произведено: США, Великобритания, Болгария
Режиссер постановщик: Бабак Наджафи
В главных ролях: Джерард Батлер (Mike Banning), Аарон Экхарт (Benjamin Asher), Морган Фриман (VP Trumbull), Алон Абутбул (Aamir Barkawi), Валид Зуэйтер (Kamran Barkawi), Адель Беншериф (Raza Mansoor), Мехди Дехби (Sultan Mansoor), Шивани Гаи (Amal Mansoor), Мартин Петрушев (UAV Reaper Pilot), Оуэн Дэвис (JOSC Officer), Майкл Уилдман (Agent Voight), Рада Митчелл (Leah Banning)
Краткое описание: Действие фильма начинается в Лондоне, где премьер-министр Великобритании погибает при загадочных обстоятельствах. На похоронах безусловно присутствуют руководители западного мира. Но то, что начиналось как наиболее безопасное событие на земле, превращается в опаснейшее покушение на самых мощных мировых лидеров, что в свою очередь ставит под угрозу будущее всего мира. Только три человека сохраняют надежду на предотвращение катастрофы: президент США, его верный помощник - агент спецслужбы и английский агент МИ-6, который никому не доверяет.
  • Видео данные: MPEG-4 AVC, 2226 Кбит/с, 1024x428
    Аудио данные: Русский (AC3, 6 ch, 384 Кбит/с), английский (АС3, 6 ch, 384 Кбит/с)
    Перевод: Дубляж - [iTunes]
    Продолжительность: 01:39:17
    Субтитры: английские (full), английские (SDH)
  • Падение Лондона (2016) BDRip-AVC | Лицензия Падение Лондона (2016) BDRip-AVC | Лицензия Падение Лондона (2016) BDRip-AVC | Лицензия
  • General
    Unique ID : 185417229436020961763207669234287636654 (0x8B7E0F374DB517E0B02E21FF0E29F0AE)
    Complete name : D:downloadLondon Has Fallen. 2016. BDRip-AVC by schultz R.G.Resident.mkv
    Format : Matroska
    Format version : Version 4 / Version 2
    File size : 2.07 GiB
    Duration : 1h 39mn
    Overall bit rate : 2 980 Kbps
    Encoded date : UTC 2016-06-03 21:44:12
    Writing application : mkvmerge v8.9.0 ('Father Daughter') 64bit
    Writing library : libebml v1.3.3 + libmatroska v1.4.4
    DURATION : 01:31:37.238000000
    NUMBER_OF_FRAMES : 1187
    NUMBER_OF_BYTES : 36070
    _STATISTICS_WRITING_APP : mkvmerge v8.9.0 ('Father Daughter') 64bit
    _STATISTICS_WRITING_DATE_UTC : 2016-06-03 21:44:12
    _STATISTICS_TAGS : BPS DURATION NUMBER_OF_FRAMES NUMBER_OF_BYTES

    Video
    ID : 1
    Format : AVC
    Format/Info : Advanced Video Codec
    Format profile : High@L4.1
    Format settings, CABAC : Yes
    Format settings, ReFrames : 12 frames
    Codec ID : V_MPEG4/ISO/AVC
    Duration : 1h 39mn
    Bit rate : 2 226 Kbps
    Width : 1 024 pixels
    Height : 428 pixels
    Display aspect ratio : 2.40:1
    Frame rate : 23.976 fps
    Color space : YUV
    Chroma subsampling : 4:2:0
    Bit depth : 8 bits
    Scan type : Progressive
    Bits/(Pixel*Frame) : 0.212
    Stream size : 1.49 GiB (72%)
    Writing library : x264 core 146 r2538 121396c
    Encoding settings : cabac=1 / ref=12 / deblock=1:-3:-3 / analyse=0x3:0x113 / me=umh / subme=11 / psy=1 / psy_rd=1.00:0.00 / mixed_ref=1 / me_range=48 / chroma_me=1 / trellis=2 / 8x8dct=1 / cqm=0 / deadzone=21,11 / fast_pskip=0 / chroma_qp_offset=-2 / threads=12 / lookahead_threads=3 / sliced_threads=0 / nr=0 / decimate=0 / interlaced=0 / bluray_compat=0 / constrained_intra=0 / bframes=13 / b_pyramid=2 / b_adapt=2 / b_bias=0 / direct=3 / weightb=1 / open_gop=0 / weightp=2 / keyint=240 / keyint_min=23 / scenecut=40 / intra_refresh=0 / rc_lookahead=40 / rc=2pass / mbtree=1 / bitrate=2226 / ratetol=1.0 / qcomp=0.60 / qpmin=0 / qpmax=69 / qpstep=4 / cplxblur=20.0 / qblur=0.5 / vbv_maxrate=14000 / vbv_bufsize=14000 / nal_hrd=none / filler=0 / ip_ratio=1.40 / aq=1:1.00
    Language : English
    Default : Yes
    Forced : No
    DURATION : 01:38:41.926000000
    NUMBER_OF_FRAMES : 141984
    NUMBER_OF_BYTES : 1646865790
    _STATISTICS_WRITING_APP : mkvmerge v8.9.0 ('Father Daughter') 64bit
    _STATISTICS_WRITING_DATE_UTC : 2016-06-03 21:44:12
    _STATISTICS_TAGS : BPS DURATION NUMBER_OF_FRAMES NUMBER_OF_BYTES

    Audio #1
    ID : 2
    Format : AC-3
    Format/Info : Audio Coding 3
    Mode extension : CM (complete main)
    Codec ID : A_AC3
    Duration : 1h 39mn
    Bit rate mode : Constant
    Bit rate : 384 Kbps
    Channel(s) : 6 channels
    Channel positions : Front: L C R, Side: L R, LFE
    Sampling rate : 48.0 KHz
    Bit depth : 16 bits
    Compression mode : Lossy
    Stream size : 273 MiB (13%)
    Language : Russian
    Default : Yes
    Forced : No

    Audio #2
    ID : 3
    Format : AC-3
    Format/Info : Audio Coding 3
    Mode extension : CM (complete main)
    Codec ID : A_AC3
    Duration : 1h 39mn
    Bit rate mode : Constant
    Bit rate : 384 Kbps
    Channel(s) : 6 channels
    Channel positions : Front: L C R, Side: L R, LFE
    Sampling rate : 48.0 KHz
    Bit depth : 16 bits
    Compression mode : Lossy
    Stream size : 273 MiB (13%)
    Language : English
    Default : No
    Forced : No

    Text #1
    ID : 4
    Format : UTF-8
    Codec ID : S_TEXT/UTF8
    Codec ID/Info : UTF-8 Plain Text
    Title : full
    Language : English
    Default : Yes
    Forced : No

    Text #2
    ID : 5
    Format : UTF-8
    Codec ID : S_TEXT/UTF8
    Codec ID/Info : UTF-8 Plain Text
    Title : SDH
    Language : English
    Default : No
    Forced : No

    Menu
    00:00:00.000 : en:00:00:00.000
    00:05:23.281 : en:00:05:23.281
    00:10:12.987 : en:00:10:12.987
    00:15:53.202 : en:00:15:53.202
    00:20:13.546 : en:00:20:13.546
    00:23:41.462 : en:00:23:41.462
    00:28:51.229 : en:00:28:51.229
    00:33:30.383 : en:00:33:30.383
    00:39:37.208 : en:00:39:37.208
    00:45:05.286 : en:00:45:05.286
    00:49:43.105 : en:00:49:43.105
    00:53:26.954 : en:00:53:26.954
    00:58:40.392 : en:00:58:40.392
    01:02:42.467 : en:01:02:42.467
    01:08:22.598 : en:01:08:22.598
    01:12:51.075 : en:01:12:51.075
    01:17:35.401 : en:01:17:35.401
    01:20:58.270 : en:01:20:58.270
    01:26:11.500 : en:01:26:11.500
    01:31:42.247 : en:01:31:42.247
10.0 из 10
голосов: 3
/10
/10
schultz 4-06-2016, 01:22
Информация
Посетители, находящиеся в группе Гости, не могут оставлять комментарии к данной публикации.