Панель пользователя
Регистрация

Воспользуйтесь социальными сетями для входа на https://freerutor.com

vk odnoklassniki facebook mailru yandex google
Популярное
Счетчик
Голосуй за нас
VIP на сайте
Популярное
Товары интернет магазина
загрузка...

Соседи. На тропе войны 2 (2016) BDRip 720p | iTunes

Соседи. На тропе войны 2 (2016) BDRip 720p | iTunes
Участники торрент обмена
Сидов Пиров Скачали
23 0 1158
Характеристика
Размер Файлы
6.06 GB
Поделиться раздачей
Фильмы (720,1080,Blu-Ray)
Наименование: Соседи. На тропе войны 2
Оригинальное наименование: Neighbors 2: Sorority Rising
Произведено: США
Категория: комедия
Режиссер постановщик: Николас Столлер
В главных ролях: Сет Роген, Зак Эфрон, Роуз Бирн, Хлоя Грейс Морец, Айк Баринхолц, Кирси Клемонс, Дэйв Франко, Джеррод Кармайкл, Кристофер Минц-Плассе, Бини Фелдштейн
Краткое описание: На этот раз в дом по соседству с Маком и Келли въезжает университетский женский клуб. Чтобы разобраться с новыми соседями, которые не дают им покоя, Мак и Келли решают обратиться за помощью к их бывшему врагу - Тедди Сандерсу.
  • Видео данные: MPEG-4 AVC, 7500 kb/s, 1280x534
    Аудио данные: Russian: AC3, 384 kb/s (6 ch) / English: DTS, 1509 kb/s (6 ch)
    Перевод: Дублированный (iTunes)
    Субтитры: Английские
    Продолжительность: 01:32:23
  • Соседи. На тропе войны 2 (2016) BDRip 720p | iTunes Соседи. На тропе войны 2 (2016) BDRip 720p | iTunes Соседи. На тропе войны 2 (2016) BDRip 720p | iTunes
  • Общее
    Уникальный идентификатор : 225321950581045786176484498556421174064 (0xA9836DDE6CA87BC283D055CAAEAC7330)
    Полное имя : D:загрузкиNeighbors.2.Sorority.Rising.2016.D.720p.BluRay.mkv
    Формат : Matroska
    Версия формата : Version 2
    Размер файла : 6,06 Гбайт
    Продолжительность : 1 ч. 32 м.
    Общий поток : 9391 Кбит/сек
    Дата кодирования : UTC 2016-08-23 12:32:21
    Программа кодирования : mkvmerge v7.8.0 ('River Man') 32bit built on Apr 3 2015 12:11:22
    Библиотека кодирования : libebml v1.3.1 + libmatroska v1.4.2

    Видео
    Идентификатор : 1
    Формат : AVC
    Формат/Информация : Advanced Video Codec
    Профиль формата : High@L4.1
    Параметр CABAC формата : Да
    Параметр ReFrames формата : 12 кадров
    Идентификатор кодека : V_MPEG4/ISO/AVC
    Продолжительность : 1 ч. 32 м.
    Битрейт : 7500 Кбит/сек
    Ширина : 1280 пикселей
    Высота : 534 пикселя
    Соотношение сторон : 2,40:1
    Режим частоты кадров : Постоянный
    Частота кадров : 23,976 кадра/сек
    Цветовое пространство : YUV
    Субдискретизация насыщенности : 4:2:0
    Битовая глубина : 8 бит
    Тип развёртки : Прогрессивная
    Бит/(Пиксели*Кадры) : 0.458
    Размер потока : 4,72 Гбайт (78%)
    Библиотека кодирования : x264 core 142 r2431+42 c69a006 tMod [8-bit@all X86]
    Настройки программы : cabac=1 / ref=12 / deblock=1:0:0 / analyse=0x3:0x113 / me=umh / subme=10 / psy=1 / fade_compensate=0.00 / psy_rd=1.05:0.10 / mixed_ref=1 / me_range=32 / chroma_me=1 / trellis=2 / 8x8dct=1 / cqm=0 / deadzone=21,11 / fast_pskip=0 / chroma_qp_offset=-2 / threads=12 / lookahead_threads=1 / sliced_threads=0 / nr=0 / decimate=1 / interlaced=0 / bluray_compat=0 / constrained_intra=0 / fgo=0 / bframes=6 / b_pyramid=2 / b_adapt=2 / b_bias=0 / direct=3 / weightb=1 / open_gop=0 / weightp=2 / keyint=250 / keyint_min=23 / scenecut=40 / intra_refresh=0 / rc=2pass / mbtree=0 / bitrate=7500 / ratetol=1.0 / qcomp=0.70 / qpmin=0:0:0 / qpmax=69:69:69 / qpstep=4 / cplxblur=20.0 / qblur=0.5 / ip_ratio=1.40 / pb_ratio=1.30 / aq=2:1.00 / aq-sensitivity=10.00 / aq-factor=1.00:1.00:1.00 / aq2=0 / aq3=0
    Default : Да
    Forced : Нет

    Аудио #1
    Идентификатор : 2
    Формат : AC-3
    Формат/Информация : Audio Coding 3
    Расширение режима : CM (complete main)
    Параметр Endianness формата : Big
    Идентификатор кодека : A_AC3
    Продолжительность : 1 ч. 32 м.
    Вид битрейта : Постоянный
    Битрейт : 384 Кбит/сек
    Каналы : 6 каналов
    Расположение каналов : Front: L C R, Side: L R, LFE
    Частота : 48,0 КГц
    Битовая глубина : 16 бит
    Метод сжатия : С потерями
    Размер потока : 254 Мбайт (4%)
    Заголовок : iTunes
    Язык : Russian
    Default : Да
    Forced : Нет

    Аудио #2
    Идентификатор : 3
    Формат : DTS
    Формат/Информация : Digital Theater Systems
    Режим : 16
    Параметр Endianness формата : Big
    Идентификатор кодека : A_DTS
    Продолжительность : 1 ч. 32 м.
    Вид битрейта : Постоянный
    Битрейт : 1509 Кбит/сек
    Каналы : 6 каналов
    Расположение каналов : Front: L C R, Side: L R, LFE
    Частота : 48,0 КГц
    Битовая глубина : 24 бит
    Метод сжатия : С потерями
    Размер потока : 997 Мбайт (16%)
    Язык : English
    Default : Нет
    Forced : Нет

    Текст #1
    Идентификатор : 4
    Формат : UTF-8
    Идентификатор кодека : S_TEXT/UTF8
    Идентификатор кодека/Информация : UTF-8 Plain Text
    Заголовок : full
    Язык : English
    Default : Нет
    Forced : Нет

    Текст #2
    Идентификатор : 5
    Формат : UTF-8
    Идентификатор кодека : S_TEXT/UTF8
    Идентификатор кодека/Информация : UTF-8 Plain Text
    Заголовок : SDH
    Язык : English
    Default : Нет
    Forced : Нет

    Меню
    00:00:00.000 : en:00:00:00.000
    00:06:30.890 : en:00:06:30.890
    00:09:50.381 : en:00:09:50.381
    00:13:05.535 : en:00:13:05.535
    00:17:37.890 : en:00:17:37.890
    00:22:13.082 : en:00:22:13.082
    00:27:34.278 : en:00:27:34.278
    00:31:54.454 : en:00:31:54.454
    00:38:36.022 : en:00:38:36.022
    00:44:43.222 : en:00:44:43.222
    00:50:42.039 : en:00:50:42.039
    00:54:32.811 : en:00:54:32.811
    01:00:54.609 : en:01:00:54.609
    01:04:14.684 : en:01:04:14.684
    01:08:26.644 : en:01:08:26.644
    01:12:54.370 : en:01:12:54.370
    01:16:34.423 : en:01:16:34.423
    01:20:45.215 : en:01:20:45.215
    01:23:18.994 : en:01:23:18.994
    01:26:03.700 : en:01:26:03.700
6.8 из 10
голосов: 9
/10
/10
Раздачу отредактировал: karta - 23-08-2016, 15:50
По причине: (Замена на рип лучшего качества.)
foster720p 23-08-2016, 15:49
Информация
Посетители, находящиеся в группе Гости, не могут оставлять комментарии к данной публикации.