Панель пользователя
Регистрация

Воспользуйтесь социальными сетями для входа на https://freerutor.com

vk odnoklassniki facebook mailru yandex google
Популярное
Счетчик
Голосуй за нас
VIP на сайте
Популярное
Товары интернет магазина
загрузка...

По ту сторону двери / The Other Side of the Door (2015) BDRip-AVC | Лицензия

По ту сторону двери / The Other Side of the Door (2015) BDRip-AVC | Лицензия
Участники торрент обмена
Сидов Пиров Скачали
5 0 1614
Характеристика
Размер Файлы
2.18 GB
Релиз группа
Поделиться раздачей
Фильмы (AVC)
Наименование: По ту сторону двери
Оригинальное наименование: The Other Side of the Door
Категория: Ужасы
Произведено: Индия, Великобритания / Kriti Productions, 42
Режиссер постановщик: Йоханнес Робертс
В главных ролях: Сара Уэйн Кэллис, Джереми Систо, София Росински, Хавьер Ботет, Джакс Малкольм, Сучитра Пиллай-Малик
Краткое описание: Идиллическая жизнь молодой семьи за границей в Индии трагически прерывается гибелью маленького сына. Безутешная мать узнает о существовании древнего ритуала, который позволяет на время вернуть умерших, чтобы с ними попрощаться. Девушка отправляется в заброшенный храм, где двери служат порталом между мирами живых и мертвых, но пренебрегает предупреждением не открывать эти таинственные врата. И теперь никто не знает, что станет с нашим миром после нарушения баланса жизни и смерти.
  • Видео данные: MPEG-4 AVC, 2426 Кбит/с, 1024x428
    Аудио данные: Русский (AC3, 6 ch, 384 Кбит/с), английский (AC3, 6 ch, 448 Кбит/с)
    Перевод: Дублированный [iTunes]
    Субтитры: Русские, английские
    Продолжительность: 01:35:40
  • По ту сторону двери / The Other Side of the Door (2015) BDRip-AVC | Лицензия По ту сторону двери / The Other Side of the Door (2015) BDRip-AVC | Лицензия По ту сторону двери / The Other Side of the Door (2015) BDRip-AVC | Лицензия
  • Формат : Matroska
    Версия формата : Version 2
    Размер файла : 2,18 Гбайт
    Продолжительность : 1 ч. 35 м.
    Общий поток : 3257 Кбит/сек
    Название фильма : The.Other.Side.Of.The.Door.2016
    Дата кодирования : UTC 2016-05-30 05:57:18
    Программа кодирования : mkvmerge v5.3.0 ('I could have danced') built on Feb 9 2012 10:38:07
    Библиотека кодирования : libebml v1.2.3 + libmatroska v1.3.0
    Attachment : Yes

    Видео
    Идентификатор : 1
    Формат : AVC
    Формат/Информация : Advanced Video Codec
    Профиль формата : High@L4.1
    Параметр CABAC формата : Да
    Параметр ReFrames формата : 10 кадров
    Идентификатор кодека : V_MPEG4/ISO/AVC
    Продолжительность : 1 ч. 35 м.
    Битрейт : 2426 Кбит/сек
    Ширина : 1024 пикселя
    Высота : 428 пикселей
    Соотношение сторон : 2,40:1
    Режим частоты кадров : Постоянный
    Частота кадров : 23,976 кадра/сек
    Цветовое пространство : YUV
    Субдискретизация насыщенности : 4:2:0
    Битовая глубина : 8 бит
    Тип развёртки : Прогрессивная
    Бит/(Пиксели*Кадры) : 0.231
    Размер потока : 1,58 Гбайт (72%)
    Библиотека кодирования : x264 core 146 r2538 121396c
    Настройки программы : cabac=1 / ref=10 / deblock=1:-3:-3 / analyse=0x3:0x133 / me=umh / subme=11 / psy=1 / psy_rd=1.00:0.10 / mixed_ref=1 / me_range=32 / chroma_me=1 / trellis=2 / 8x8dct=1 / cqm=0 / deadzone=21,11 / fast_pskip=0 / chroma_qp_offset=-3 / threads=12 / lookahead_threads=2 / sliced_threads=0 / nr=0 / decimate=0 / interlaced=0 / bluray_compat=0 / constrained_intra=0 / bframes=8 / b_pyramid=2 / b_adapt=2 / b_bias=0 / direct=3 / weightb=1 / open_gop=0 / weightp=2 / keyint=240 / keyint_min=23 / scenecut=40 / intra_refresh=0 / rc=2pass / mbtree=0 / bitrate=2426 / ratetol=1.0 / qcomp=0.60 / qpmin=0 / qpmax=69 / qpstep=4 / cplxblur=20.0 / qblur=0.5 / ip_ratio=1.40 / pb_ratio=1.30 / aq=1:0.70
    Default : Да
    Forced : Нет

    Аудио #1
    Идентификатор : 2
    Формат : AC-3
    Формат/Информация : Audio Coding 3
    Расширение режима : CM (complete main)
    Параметр Endianness формата : Big
    Идентификатор кодека : A_AC3
    Продолжительность : 1 ч. 35 м.
    Вид битрейта : Постоянный
    Битрейт : 384 Кбит/сек
    Каналы : 6 каналов
    Расположение каналов : Front: L C R, Side: L R, LFE
    Частота : 48,0 КГц
    Битовая глубина : 16 бит
    Метод сжатия : С потерями
    Размер потока : 263 Мбайт (12%)
    Default : Да
    Forced : Нет

    Аудио #2
    Идентификатор : 3
    Формат : AC-3
    Формат/Информация : Audio Coding 3
    Расширение режима : CM (complete main)
    Параметр Endianness формата : Big
    Идентификатор кодека : A_AC3
    Продолжительность : 1 ч. 35 м.
    Вид битрейта : Постоянный
    Битрейт : 448 Кбит/сек
    Каналы : 6 каналов
    Расположение каналов : Front: L C R, Side: L R, LFE
    Частота : 48,0 КГц
    Битовая глубина : 16 бит
    Метод сжатия : С потерями
    Размер потока : 307 Мбайт (14%)
    Default : Нет
    Forced : Нет

    Текст #1
    Идентификатор : 4
    Формат : UTF-8
    Идентификатор кодека : S_TEXT/UTF8
    Идентификатор кодека/Информация : UTF-8 Plain Text
    Заголовок : Full
    Язык : Russian
    Default : Нет
    Forced : Нет

    Текст #2
    Идентификатор : 5
    Формат : UTF-8
    Идентификатор кодека : S_TEXT/UTF8
    Идентификатор кодека/Информация : UTF-8 Plain Text
    Заголовок : English regular
    Язык : English
    Default : Нет
    Forced : Нет

    Текст #3
    Идентификатор : 6
    Формат : UTF-8
    Идентификатор кодека : S_TEXT/UTF8
    Идентификатор кодека/Информация : UTF-8 Plain Text
    Заголовок : English sdh
    Язык : English
    Default : Нет
    Forced : Нет

    Меню
    00:00:00.000 : en:00:00:00.000
    00:04:06.872 : en:00:04:06.872
    00:09:23.271 : en:00:09:23.271
    00:11:45.705 : en:00:11:45.705
    00:14:41.089 : en:00:14:41.089
    00:18:52.423 : en:00:18:52.423
    00:22:56.834 : en:00:22:56.834
    00:24:35.432 : en:00:24:35.432
    00:27:46.832 : en:00:27:46.832
    00:32:29.739 : en:00:32:29.739
    00:36:01.326 : en:00:36:01.326
    00:40:49.739 : en:00:40:49.739
    00:45:00.615 : en:00:45:00.615
    00:49:00.980 : en:00:49:00.980
    00:54:37.107 : en:00:54:37.107
    00:59:41.578 : en:00:59:41.578
    01:04:47.884 : en:01:04:47.884
    01:07:49.565 : en:01:07:49.565
    01:12:16.290 : en:01:12:16.290
    01:17:07.832 : en:01:17:07.832
    01:22:19.935 : en:01:22:19.935
    01:25:11.606 : en:01:25:11.606
    01:29:05.340 : en:01:29:05.340
    01:31:18.098 : en:01:31:18.098
5.0 из 10
голосов: 1
/10
/10
grab777 30-05-2016, 10:49
Информация
Посетители, находящиеся в группе Гости, не могут оставлять комментарии к данной публикации.