Панель пользователя
Регистрация

Воспользуйтесь социальными сетями для входа на https://freerutor.com

vk odnoklassniki facebook mailru yandex google
Популярное
Счетчик
Голосуй за нас
VIP на сайте
Популярное
Товары интернет магазина
загрузка...

Волчья яма / Wolf Creek (1 сезон 1-6 серии из 6) (2016) WEBRip 720р | Project_Web_Mania

Волчья яма / Wolf Creek (1 сезон 1-6 серии из 6) (2016) WEBRip 720р | Project_Web_Mania
Участники торрент обмена
Сидов Пиров Скачали
0 0 683
Характеристика
Размер Файлы
2.43 GB
Поделиться раздачей
Заруб. сериалы (720P,1080P)
Наименование: Волчья яма
Оригинальное наименование: Wolf Creek
Категория: Ужасы, триллер, драма
Произведено: Австралия / Emu Creek Pictures, Screentime
Режиссер постановщик: Грег МакЛин, Тони Тилс
В главных ролях: Люси Фрай, Джон Джэррэт, Дастин Клер, Эдди Бару, Алисия Гардинер, Энди МакФи, Ричард Коуторн, Джэйк Райан, Лиана Корнелл, Мэтт Леветт
Краткое описание: Ева могла стать очередной жертвой сумасшедшего серийного убийцы Мика Тейлора. Но ей удается избежать смерти от рук маньяка. И теперь она одержима одной только местью.
  • Видео данные: MPEG-4 AVC, 1600 Кбит/с, 1280x720
    Аудио данные: AC3, 2 ch, 192 Кбит/с
    Перевод: Любительское одноголосое [Project_Web_Mania]
    Продолжительность: 6х ~00:45:00
  • Волчья яма / Wolf Creek (1 сезон 1-6 серии из 6) (2016) WEBRip 720р | Project_Web_Mania Волчья яма / Wolf Creek (1 сезон 1-6 серии из 6) (2016) WEBRip 720р | Project_Web_Mania Волчья яма / Wolf Creek (1 сезон 1-6 серии из 6) (2016) WEBRip 720р | Project_Web_Mania
  • General
    Unique ID : 209887676352398326278616886783739954183 (0x9DE6E565CB1C7805A70FC7CA7FCC0407)
    Format : Matroska
    Format version : Version 2
    Overall bit rate : 1 629 Kbps
    Encoded date : UTC 2016-05-25 18:43:11
    Writing application : mkvmerge v5.0.1 ('Es ist Sommer') built on Oct 9 2011 11:55:43
    Writing library : libebml v1.2.2 + libmatroska v1.3.0

    Video
    ID : 1
    Format : AVC
    Format/Info : Advanced Video Codec
    Format profile : Main@L4
    Format settings, CABAC : Yes
    Format settings, ReFrames : 4 frames
    Codec ID : V_MPEG4/ISO/AVC
    Bit rate : 1 524 Kbps
    Width : 1 280 pixels
    Height : 720 pixels
    Display aspect ratio : 16:9
    Frame rate mode : Constant
    Frame rate : 24.000 fps
    Color space : YUV
    Chroma subsampling : 4:2:0
    Bit depth : 8 bits
    Scan type : Progressive
    Bits/(Pixel*Frame) : 0.059
    Stream size : 18.9 MiB (85%)
    Default : Yes
    Forced : No
    Color range : Limited
    Color primaries : BT.709
    Transfer characteristics : BT.709
    Matrix coefficients : BT.709

    Audio
    ID : 2
    Format : AC-3
    Format/Info : Audio Coding 3
    Mode extension : CM (complete main)
    Format settings, Endianness : Big
    Codec ID : A_AC3
    Bit rate mode : Constant
    Bit rate : 192 Kbps
    Channel(s) : 2 channels
    Channel positions : Front: L R
    Sampling rate : 48.0 KHz
    Compression mode : Lossy
    Stream size : 2.79 MiB (13%)
    Title : VO_Project_Web_Mania
    Language : Russian
    Default : Yes
    Forced : No
7.5 из 10
голосов: 2
/10
/10
grab777 30-05-2016, 10:32
Информация
Посетители, находящиеся в группе Гости, не могут оставлять комментарии к данной публикации.