Панель пользователя
Регистрация

Воспользуйтесь социальными сетями для входа на https://freerutor.com

vk odnoklassniki facebook mailru yandex google
Популярное
Счетчик
Голосуй за нас
VIP на сайте
Популярное
Товары интернет магазина
загрузка...

Человек, который хотел жить по-своему / L'homme qui voulait vivre sa vie (2010) BDRip 720p

Человек, который хотел жить по-своему / L'homme qui voulait vivre sa vie (2010) BDRip 720p
Участники торрент обмена
Сидов Пиров Скачали
2 0 76
Характеристика
Размер Файлы
5.61 GB
Поделиться раздачей
Фильмы (720,1080,Blu-Ray)
Наименование: Человек, который хотел жить по-своему
Оригинальное наименование: L'homme qui voulait vivre sa vie
Категория: Триллер, драма
Произведено: Франция / EuropaCorp, Ciné Cinémas, Canal+ [fr], TF1 Films Production
Режиссер постановщик: Эрик Лартиго
В главных ролях: Ромен Дюрис, Марина Фоис, Нильс Ареструп, Бранка Катич, Катрин Денёв, Эрик Руф, Энцо Какот, Люка Антик, Рашель Демарес, Эстебан Карвахаль-Алегрия
Краткое описание: Главный герой Поль — сотрудник одной из адвокатских контор Парижа с большой зарплатой и большим домом, красивой женой и двумя сыновьями. Однако вскоре Поль узнает, что его жена изменяет ему с местным фотографом. Слепая ярость толкает Поля на безрассудный поступок. Стоя над трупом любовника, он понимает, что его красивая благополучная жизнь в прошлом…
  • Видео данные: MPEG-4 AVC, 5274 Кбит/с, 1280x546
    Аудио данные: Русский (AC3, 2 ch, 192 Кбит/с), французский (DTS, 6 ch, 1510 Кбит/с)
    Перевод: Любительский двухголосый [Elrom]
    Субтитры: Русские, английские
    Продолжительность: 01:55:17
  • Человек, который хотел жить по-своему / L'homme qui voulait vivre sa vie (2010) BDRip 720p Человек, который хотел жить по-своему / L'homme qui voulait vivre sa vie (2010) BDRip 720p Человек, который хотел жить по-своему / L'homme qui voulait vivre sa vie (2010) BDRip 720p
  • General
    Unique ID : 238715815513549430642054376829698787600 (0xB396FE6510C15D5F8CF4468CE8BD4910)
    Complete name : The.Big.Picture.2010.BluRay.720p.x264.RUS.FRE.Subs-HDChina.mkv
    Format : Matroska
    File size : 5.61 GiB
    Duration : 1h 55mn
    Overall bit rate : 6 973 Kbps
    Encoded date : UTC 2012-02-11 15:56:46
    Writing application : mkvmerge v5.2.1 ('A Far Off Place') built on Jan 2 2012 23:21:10
    Writing library : libebml v1.2.3 + libmatroska v1.3.0

    Video
    ID : 1
    Format : AVC
    Format/Info : Advanced Video Codec
    Format profile : High@L4.1
    Format settings, CABAC : Yes
    Format settings, ReFrames : 11 frames
    Codec ID : V_MPEG4/ISO/AVC
    Duration : 1h 55mn
    Bit rate : 5 274 Kbps
    Width : 1 280 pixels
    Height : 546 pixels
    Display aspect ratio : 2.35:1
    Frame rate : 23.976 fps
    Color space : YUV
    Chroma subsampling : 4:2:0
    Bit depth : 8 bits
    Scan type : Progressive
    Bits/(Pixel*Frame) : 0.315
    Stream size : 4.13 GiB (74%)
    Writing library : x264 core 116 r2074 2641b9e
    Encoding settings : cabac=1 / ref=11 / deblock=1:-3:-3 / analyse=0x3:0x133 / me=umh / subme=10 / psy=1 / psy_rd=1.00:0.10 / mixed_ref=1 / me_range=48 / chroma_me=1 / trellis=2 / 8x8dct=1 / cqm=0 / deadzone=21,11 / fast_pskip=0 / chroma_qp_offset=-3 / threads=9 / sliced_threads=0 / nr=0 / decimate=0 / interlaced=0 / bluray_compat=0 / constrained_intra=0 / bframes=6 / b_pyramid=2 / b_adapt=2 / b_bias=0 / direct=3 / weightb=1 / open_gop=0 / weightp=2 / keyint=360 / keyint_min=2 / scenecut=40 / intra_refresh=0 / rc_lookahead=60 / rc=2pass / mbtree=1 / bitrate=5274 / ratetol=1.0 / qcomp=0.70 / qpmin=0 / qpmax=69 / qpstep=4 / cplxblur=20.0 / qblur=0.5 / vbv_maxrate=50000 / vbv_bufsize=30000 / nal_hrd=none / ip_ratio=1.40 / aq=2:1.00

    Audio #1
    ID : 2
    Format : AC-3
    Format/Info : Audio Coding 3
    Mode extension : CM (complete main)
    Codec ID : A_AC3
    Duration : 1h 55mn
    Bit rate mode : Constant
    Bit rate : 192 Kbps
    Channel(s) : 2 channels
    Channel positions : Front: L R
    Sampling rate : 48.0 KHz
    Bit depth : 16 bits
    Compression mode : Lossy
    Stream size : 158 MiB (3%)
    Title : DVO (Elrom)
    Language : Russian

    Audio #2
    ID : 3
    Format : DTS
    Format/Info : Digital Theater Systems
    Codec ID : A_DTS
    Duration : 1h 55mn
    Bit rate mode : Constant
    Bit rate : 1 510 Kbps
    Channel(s) : 6 channels
    Channel positions : Front: L C R, Side: L R, LFE
    Sampling rate : 48.0 KHz
    Bit depth : 16 bits
    Compression mode : Lossy
    Stream size : 1.22 GiB (22%)
    Title : Original
    Language : French

    Text #1
    ID : 4
    Format : UTF-8
    Codec ID : S_TEXT/UTF8
    Codec ID/Info : UTF-8 Plain Text
    Title : creo140
    Language : Russian

    Text #2
    ID : 5
    Format : UTF-8
    Codec ID : S_TEXT/UTF8
    Codec ID/Info : UTF-8 Plain Text
    Language : English
5.0 из 10
голосов: 1
/10
/10
grab777 29-05-2016, 19:51
Информация
Посетители, находящиеся в группе Гости, не могут оставлять комментарии к данной публикации.