Панель пользователя
Регистрация

Воспользуйтесь социальными сетями для входа на https://freerutor.com

vk odnoklassniki facebook mailru yandex google
Популярное
Счетчик
Голосуй за нас
VIP на сайте
Популярное
Товары интернет магазина
загрузка...

13 часов: Тайные солдаты Бенгази (2016) BD-Remux 1080p | Лицензия

13 часов: Тайные солдаты Бенгази (2016) BD-Remux 1080p | Лицензия
Участники торрент обмена
Сидов Пиров Скачали
2 0 736
Характеристика
Размер Файлы
33.76 GB
Релиз группа
Поделиться раздачей
Фильмы (720,1080,Blu-Ray)
Наименование: 13 часов: Тайные солдаты Бенгази
Оригинальное наименование: 13 Hours: The Secret Soldiers of Benghazi
Категория: Боевик, триллер, драма, военный
Произведено: США / 3 Arts Entertainment, Dune Films, Latina Pictures
Режиссер постановщик: Майкл Бэй
В главных ролях: Джон Красински, Джеймс Бэдж Дэйл, Пабло Шрайбер, Дэвид Денман, Доминик Фумуса, Макс Мартини, Алексия Бальер, Дэвид Костабайл, Пейман Моаади, Мэтт Летчер
Краткое описание: 2012 год. Бенгази, Ливия. Группа террористов решает «отпраздновать» события 11 сентября нападением на американское посольство. Шестерке бойцов из элитного спецотряда приказано вмешаться только в крайнем случае. Но когда под угрозой десятки жизней, долг и совесть берут верх над субординацией. И мужественные солдаты без колебаний вступают в бой с яростной группировкой боевиков. Бой, который для всех шестерых, скорее всего, станет последним.
  • Видео данные: MPEG-4 AVC, 26.6 Mбит/с, 1920x1080
    Аудио данные: Русский (AC3, 6 ch, 640 Кбит/с), (DTS, 6 ch, 1536 Кбит/с), английский (TrueHD, 6 ch, 4641 Кбит/с)
    Перевод: Дублированный [Лицензия]
    Субтитры: Русские, английские
    Продолжительность: 02:24:49
  • 13 часов: Тайные солдаты Бенгази (2016) BD-Remux 1080p | Лицензия 13 часов: Тайные солдаты Бенгази (2016) BD-Remux 1080p | Лицензия 13 часов: Тайные солдаты Бенгази (2016) BD-Remux 1080p | Лицензия
  • General
    Unique ID : 196968952479982715144480883723080093152 (0x942ED72275F04D47A59C5C916394CDE0)
    Complete name : F:Video13Новая папка13.Hours....The.Secret.Soldiers.of.Benghazi..2016...BDREMUX.1080p.ExKinoRay.mkv
    Format : Matroska
    Format version : Version 4 / Version 2
    File size : 33.8 GiB
    Duration : 2h 24mn
    Overall bit rate mode : Variable
    Overall bit rate : 33.5 Mbps
    Movie name : 13.Hours.The.Secret.Soldiers.of.Benghazi.2016.BDREMUX.1080p.ExKinoRay
    Encoded date : UTC 2016-06-04 00:18:50
    Writing application : mkvmerge v8.3.0 ('Over the Horizon') 64bit
    Writing library : libebml v1.3.1 + libmatroska v1.4.2

    Video
    ID : 1
    Format : AVC
    Format/Info : Advanced Video Codec
    Format profile : High@L4.1
    Format settings, CABAC : Yes
    Format settings, ReFrames : 4 frames
    Codec ID : V_MPEG4/ISO/AVC
    Duration : 2h 24mn
    Bit rate mode : Variable
    Bit rate : 26.6 Mbps
    Maximum bit rate : 29.0 Mbps
    Width : 1 920 pixels
    Height : 1 080 pixels
    Display aspect ratio : 16:9
    Frame rate mode : Constant
    Frame rate : 23.976 (24000/1001) fps
    Color space : YUV
    Chroma subsampling : 4:2:0
    Bit depth : 8 bits
    Scan type : Progressive
    Bits/(Pixel*Frame) : 0.534
    Stream size : 26.8 GiB (79%)
    Title : 13.Hours.The.Secret.Soldiers.of.Benghazi.2016.BDREMUX.1080p.ExKinoRay.***селезень***
    Language : English
    Default : Yes
    Forced : No

    Audio #1
    ID : 2
    Format : AC-3
    Format/Info : Audio Coding 3
    Mode extension : CM (complete main)
    Format settings, Endianness : Big
    Codec ID : A_AC3
    Duration : 2h 24mn
    Bit rate mode : Constant
    Bit rate : 640 Kbps
    Channel(s) : 6 channels
    Channel positions : Front: L C R, Side: L R, LFE
    Sampling rate : 48.0 KHz
    Frame rate : 31.250 fps (1536 spf)
    Compression mode : Lossy
    Stream size : 661 MiB (2%)
    Title : DUB [license]
    Language : Russian
    Default : Yes
    Forced : No

    Audio #2
    ID : 3
    Format : DTS
    Format/Info : Digital Theater Systems
    Mode : 16
    Format settings, Endianness : Big
    Codec ID : A_DTS
    Duration : 2h 24mn
    Bit rate mode : Constant
    Bit rate : 1 536 Kbps
    Channel(s) : 6 channels
    Channel positions : Front: L C R, Side: L R, LFE
    Sampling rate : 48.0 KHz
    Frame rate : 93.750 fps (512 spf)
    Bit depth : 16 bits
    Compression mode : Lossy
    Stream size : 1.55 GiB (5%)
    Title : DUB-DTS [License]
    Language : Russian
    Default : No
    Forced : No

    Audio #3
    ID : 4
    Format : Atmos / TrueHD
    Codec ID : A_TRUEHD
    Duration : 2h 24mn
    Bit rate mode : Variable
    Bit rate : 4 641 Kbps
    Maximum bit rate : 7 500 Kbps
    Channel(s) : Object Based / 8 channels
    Channel positions : Object Based / Front: L C R, Side: L R, Back: L R, LFE
    Sampling rate : / 48.0 KHz
    Frame rate : 1 200.000 fps (40 spf)
    Compression mode : Lossless
    Stream size : 4.68 GiB (14%)
    Title : Original
    Language : English
    Default : No
    Forced : No

    Text #1
    ID : 5
    Format : UTF-8
    Codec ID : S_TEXT/UTF8
    Codec ID/Info : UTF-8 Plain Text
    Duration : 2h 16mn
    Bit rate : 4 bps
    Count of elements : 59
    Stream size : 4.24 KiB (0%)
    Title : forced
    Language : Russian
    Default : Yes
    Forced : No

    Text #2
    ID : 6
    Format : UTF-8
    Codec ID : S_TEXT/UTF8
    Codec ID/Info : UTF-8 Plain Text
    Duration : 2h 23mn
    Bit rate : 94 bps
    Count of elements : 1855
    Stream size : 99.3 KiB (0%)
    Language : Russian
    Default : No
    Forced : No

    Text #3
    ID : 7
    Format : UTF-8
    Codec ID : S_TEXT/UTF8
    Codec ID/Info : UTF-8 Plain Text
    Duration : 2h 14mn
    Bit rate : 67 bps
    Count of elements : 2095
    Stream size : 66.5 KiB (0%)
    Language : English
    Default : No
    Forced : No

    Text #4
    ID : 8
    Format : UTF-8
    Codec ID : S_TEXT/UTF8
    Codec ID/Info : UTF-8 Plain Text
    Duration : 2h 15mn
    Bit rate : 71 bps
    Count of elements : 2274
    Stream size : 70.7 KiB (0%)
    Title : SDH
    Language : English
    Default : No
    Forced : No

    Menu
    00:00:00.000 : en:Chapter 01
    00:04:47.662 : en:Chapter 02
    00:09:01.541 : en:Chapter 03
    00:15:31.556 : en:Chapter 04
    00:21:12.229 : en:Chapter 05
    00:26:48.774 : en:Chapter 06
    00:31:22.756 : en:Chapter 07
    00:34:20.058 : en:Chapter 08
    00:39:36.124 : en:Chapter 09
    00:47:12.872 : en:Chapter 10
    00:53:59.027 : en:Chapter 11
    01:02:27.744 : en:Chapter 12
    01:10:03.324 : en:Chapter 13
    01:23:02.477 : en:Chapter 14
    01:27:11.101 : en:Chapter 15
    01:34:50.685 : en:Chapter 16
    01:42:36.359 : en:Chapter 17
    01:48:08.148 : en:Chapter 18
    01:53:47.279 : en:Chapter 19
    02:00:22.882 : en:Chapter 20
    02:07:19.465 : en:Chapter 21
    02:18:25.422 : en:Chapter 22
5.0 из 10
голосов: 1
/10
/10
Раздачу отредактировал: grab777 - 5-06-2016, 03:06
По причине: (Замена Чистый звук на Лицензия)
grab777 4-06-2016, 16:52
Информация
Посетители, находящиеся в группе Гости, не могут оставлять комментарии к данной публикации.