Панель пользователя
Регистрация

Воспользуйтесь социальными сетями для входа на https://freerutor.com

vk odnoklassniki facebook mailru yandex google
Популярное
Счетчик
Голосуй за нас
VIP на сайте
Популярное
Товары интернет магазина
загрузка...

По ту сторону двери / The Other Side of the Door (2015) BDRemux 1080p | Лицензия

По ту сторону двери / The Other Side of the Door (2015) BDRemux 1080p | Лицензия
Участники торрент обмена
Сидов Пиров Скачали
1 0 712
Характеристика
Размер Файлы
22.53 GB
Релиз группа
Поделиться раздачей
Фильмы (720,1080,Blu-Ray)
Наименование: По ту сторону двери
Оригинальное наименование: The Other Side of the Door
Категория: Ужасы
Произведено: Индия, Великобритания. 20th Century Fox, 42 , Kriti Productions
Режиссер постановщик: Йоханнес Робертс
В главных ролях: Сара Уэйн Кэллис, Джереми Систо, София Росински, Хавьер Ботет, Джакс Малкольм, Сучитра Пиллай-Малик
Краткое описание: Идиллическая жизнь молодой семьи за границей трагически прерывается гибелью маленького сына. Безутешная мать узнает о существовании древнего ритуала, который позволяет на время вернуть умерших, чтобы с ними попрощаться. Девушка отправляется в заброшенный храм, где двери служат порталом между мирами живых и мертвых, но пренебрегает предупреждением не открывать эти таинственные врата. И теперь никто не знает, что станет с нашим миром после нарушения баланса жизни и смерти.
  • Видео данные: MPEG-4 AVC, 1920x1080, 29.7 Mbit/s, 23.976 fps
    Аудио #01: AC3, 48 kHz, 5.1, 384 Kbps | Русский
    Аудио #02: DTS-HD MA, 48 kHz, 5.1, 3579 kbps | Оригинал
    Перевод: Дублированный [iTunes]
    Субтитры: Русские, английские
    Продолжительность: 01:35:41
    Релиз без рекламы.
  • По ту сторону двери / The Other Side of the Door (2015) BDRemux 1080p | Лицензия По ту сторону двери / The Other Side of the Door (2015) BDRemux 1080p | Лицензия По ту сторону двери / The Other Side of the Door (2015) BDRemux 1080p | Лицензия
  • General
    Unique ID : 204797849773629067617929357373996551077 (0x9A12A1928E4D6EAAB2FB7FE8A3584BA5)
    Complete name : F:\Video\The.Other.Side.Of.The.Door.2016.BDREMUX.1080p.ExKinoRay.mkv
    Format : Matroska
    Format version : Version 4 / Version 2
    File size : 22.5 GiB
    Duration : 1h 35mn
    Overall bit rate mode : Variable
    Overall bit rate : 33.7 Mbps
    Movie name : The.Other.Side.Of.The.Door.2016.BDREMUX.1080p.ExKinoRay
    Encoded date : UTC 2016-05-28 09:21:19
    Writing application : mkvmerge v8.3.0 ('Over the Horizon') 64bit
    Writing library : libebml v1.3.1 + libmatroska v1.4.2

    Video
    ID : 1
    Format : AVC
    Format/Info : Advanced Video Codec
    Format profile : High@L4.1
    Format settings, CABAC : Yes
    Format settings, ReFrames : 2 frames
    Codec ID : V_MPEG4/ISO/AVC
    Duration : 1h 35mn
    Bit rate mode : Variable
    Bit rate : 29.7 Mbps
    Width : 1 920 pixels
    Height : 1 080 pixels
    Display aspect ratio : 16:9
    Frame rate mode : Constant
    Frame rate : 23.976 (24000/1001) fps
    Color space : YUV
    Chroma subsampling : 4:2:0
    Bit depth : 8 bits
    Scan type : Progressive
    Bits/(Pixel*Frame) : 0.598
    Stream size : 19.9 GiB (88%)
    Title : The.Other.Side.Of.The.Door.2016.BDREMUX.1080p.ExKinoRay.***селезень***
    Language : English
    Default : No
    Forced : No

    Audio #1
    ID : 2
    Format : AC-3
    Format/Info : Audio Coding 3
    Mode extension : CM (complete main)
    Format settings, Endianness : Big
    Codec ID : A_AC3
    Duration : 1h 35mn
    Bit rate mode : Constant
    Bit rate : 384 Kbps
    Channel(s) : 6 channels
    Channel positions : Front: L C R, Side: L R, LFE
    Sampling rate : 48.0 KHz
    Frame rate : 31.250 fps (1536 spf)
    Compression mode : Lossy
    Stream size : 263 MiB (1%)
    Title : DUB [iTunes]
    Language : Russian
    Default : Yes
    Forced : No

    Audio #2
    ID : 3
    Format : DTS
    Format/Info : Digital Theater Systems
    Format profile : MA / Core
    Mode : 16
    Format settings, Endianness : Big
    Codec ID : A_DTS
    Duration : 1h 35mn
    Bit rate mode : Variable / Constant
    Bit rate : 3 579 Kbps / 1 509 Kbps
    Channel(s) : 6 channels
    Channel positions : Front: L C R, Side: L R, LFE
    Sampling rate : 48.0 KHz
    Frame rate : 93.750 fps (512 spf)
    Bit depth : 24 bits
    Compression mode : Lossless / Lossy
    Stream size : 2.39 GiB (11%)
    Title : Original
    Language : English
    Default : No
    Forced : No

    Text #1
    ID : 4
    Format : UTF-8
    Codec ID : S_TEXT/UTF8
    Codec ID/Info : UTF-8 Plain Text
    Duration : 1h 30mn
    Bit rate : 43 bps
    Count of elements : 733
    Stream size : 28.8 KiB (0%)
    Title : Full
    Language : Russian
    Default : No
    Forced : No

    Text #2
    ID : 5
    Format : UTF-8
    Codec ID : S_TEXT/UTF8
    Codec ID/Info : UTF-8 Plain Text
    Duration : 1h 30mn
    Bit rate : 26 bps
    Count of elements : 724
    Stream size : 17.7 KiB (0%)
    Title : English regular
    Language : English
    Default : No
    Forced : No

    Text #3
    ID : 6
    Format : UTF-8
    Codec ID : S_TEXT/UTF8
    Codec ID/Info : UTF-8 Plain Text
    Duration : 1h 30mn
    Bit rate : 32 bps
    Count of elements : 907
    Stream size : 21.5 KiB (0%)
    Title : English sdh
    Language : English
    Default : No
    Forced : No

    Menu
    00:00:00.000 : en:00:00:00.000
    00:04:06.872 : en:00:04:06.872
    00:09:23.271 : en:00:09:23.271
    00:11:45.705 : en:00:11:45.705
    00:14:41.089 : en:00:14:41.089
    00:18:52.423 : en:00:18:52.423
    00:22:56.834 : en:00:22:56.834
    00:24:35.432 : en:00:24:35.432
    00:27:46.832 : en:00:27:46.832
    00:32:29.739 : en:00:32:29.739
    00:36:01.326 : en:00:36:01.326
    00:40:49.739 : en:00:40:49.739
    00:45:00.615 : en:00:45:00.615
    00:49:00.980 : en:00:49:00.980
    00:54:37.107 : en:00:54:37.107
    00:59:41.578 : en:00:59:41.578
    01:04:47.884 : en:01:04:47.884
    01:07:49.565 : en:01:07:49.565
    01:12:16.290 : en:01:12:16.290
    01:17:07.832 : en:01:17:07.832
    01:22:19.935 : en:01:22:19.935
    01:25:11.606 : en:01:25:11.606
    01:29:05.340 : en:01:29:05.340
    01:31:18.098 : en:01:31:18.098
8.8 из 10
голосов: 4
/10
/10
616759 28-05-2016, 14:41
Информация
Посетители, находящиеся в группе Гости, не могут оставлять комментарии к данной публикации.