Панель пользователя
Регистрация

Воспользуйтесь социальными сетями для входа на https://freerutor.com

vk odnoklassniki facebook mailru yandex google
Популярное
Счетчик
Голосуй за нас
VIP на сайте
Популярное
Товары интернет магазина
загрузка...

Мафия: Игра на выживание (2015) BDRip 1080p | halfOU | 3D-Video | Лицензия

Мафия: Игра на выживание (2015) BDRip 1080p | halfOU | 3D-Video | Лицензия
Участники торрент обмена
Сидов Пиров Скачали
1 0 689
Характеристика
Размер Файлы
6.82 GB
Релиз группа
Поделиться раздачей
3D фильмы
Наименование: Мафия: Игра на выживание
Произведено: Россия
Категория: фантастика, боевик
Режиссер постановщик: Сарик Андреасян
В главных ролях: Виктор Вержбицкий, Вениамин Смехов, Юрий Чурсин, Вячеслав Разбегаев, Ольга Тумайкина, Андрей Чадов, Вадим Цаллати, Виолетта Гетманская, Наталья Рудова, Евгений Коряковский
Краткое описание: Москва. Далекое будущее. Карточная игра МАФИЯ стала самым популярным в мире телешоу. Одиннадцать человек соберутся за столом, чтобы выяснить — кто из них Мирный Житель, а кто безжалостная МАФИЯ. На глазах всего мира готовится коктейль из эмоций и чувств: хитрости, страха, лжи, ненависти, презрения, боли, гордости, страсти, любви и смерти. Ведь выигравший в схватке получит огромный денежный приз, а проигравший просто умрет…
  • Видео данные: MPEG-4 AVC, 9870 kb/s, 1920x1080
    Аудио данные: Русский (AC3, 6 ch, 640 Кбит/с)
    Перевод: Оригинал [Лицензия]
    Продолжительность: 01:31:06
  • Мафия: Игра на выживание (2015) BDRip 1080p | halfOU | 3D-Video | Лицензия Мафия: Игра на выживание (2015) BDRip 1080p | halfOU | 3D-Video | Лицензия Мафия: Игра на выживание (2015) BDRip 1080p | halfOU | 3D-Video | Лицензия
  • General
    Unique ID : 205355562000864682083778525051193521640 (0x9A7E0AE883C68050A4479AB900CDF5E8)
    Complete name : E:Mafia.IgraNaVyzhivanie(2015)3D-halfOU(Ash61).mkv
    Format : Matroska
    Format version : Version 2
    File size : 6.82 GiB
    Duration : 1h 31mn
    Overall bit rate : 10.7 Mbps
    Movie name : Мафия: Игра на выживание / Survival Game (2015) в 3Д
    Encoded date : UTC 2016-05-25 17:18:27
    Writing application : mkvmerge v5.8.0 ('No Sleep / Pillow') built on Sep 2 2012 15:37:04
    Writing library : libebml v1.2.3 + libmatroska v1.3.0

    Video
    ID : 1
    Format : AVC
    Format/Info : Advanced Video Codec
    Format profile : High@L4.1
    Format settings, CABAC : Yes
    Format settings, ReFrames : 4 frames
    Codec ID : V_MPEG4/ISO/AVC
    Duration : 1h 31mn
    Bit rate : 9 870 Kbps
    Width : 1 920 pixels
    Height : 1 080 pixels
    Display aspect ratio : 16:9
    Frame rate mode : Constant
    Frame rate : 23.976 fps
    Color space : YUV
    Chroma subsampling : 4:2:0
    Bit depth : 8 bits
    Scan type : Progressive
    Bits/(Pixel*Frame) : 0.199
    Stream size : 6.28 GiB (92%)
    Title : BDRip by Ash61
    Writing library : x264 core 146 r2538 121396c
    Encoding settings : cabac=1 / ref=4 / deblock=1:-3:-3 / analyse=0x3:0x113 / me=umh / subme=10 / psy=1 / psy_rd=1.00:0.00 / mixed_ref=1 / me_range=32 / chroma_me=1 / trellis=2 / 8x8dct=1 / cqm=0 / deadzone=21,11 / fast_pskip=1 / chroma_qp_offset=-2 / threads=12 / lookahead_threads=3 / sliced_threads=0 / nr=0 / decimate=1 / interlaced=0 / bluray_compat=0 / constrained_intra=0 / bframes=12 / b_pyramid=2 / b_adapt=2 / b_bias=0 / direct=3 / weightb=1 / open_gop=0 / weightp=2 / keyint=250 / keyint_min=23 / scenecut=40 / intra_refresh=0 / rc_lookahead=60 / rc=crf / mbtree=1 / crf=15.0 / qcomp=0.70 / qpmin=0 / qpmax=69 / qpstep=4 / vbv_maxrate=40000 / vbv_bufsize=30000 / crf_max=0.0 / nal_hrd=none / filler=0 / frame-packing=4 / ip_ratio=1.40 / aq=1:0.70
    Language : Russian
    Default : Yes
    Forced : No

    Audio
    ID : 2
    Format : AC-3
    Format/Info : Audio Coding 3
    Mode extension : CM (complete main)
    Format settings, Endianness : Big
    Codec ID : A_AC3
    Duration : 1h 31mn
    Bit rate mode : Constant
    Bit rate : 640 Kbps
    Channel(s) : 6 channels
    Channel positions : Front: L C R, Side: L R, LFE
    Sampling rate : 48.0 KHz
    Bit depth : 16 bits
    Compression mode : Lossy
    Stream size : 417 MiB (6%)
    Title : Оригинал - BD 3D Ger
    Language : Russian
    Default : Yes
    Forced : No

    Menu
    00:00:00.000 : :1
    00:08:51.573 : :2
    00:18:26.022 : :3
    00:27:38.991 : :4
    00:37:32.125 : :5
    00:48:15.309 : :6
    00:59:19.139 : :7
    01:11:41.547 : :8
    01:26:38.777 : :9
4.0 из 10
голосов: 2
/10
/10
grab777 25-05-2016, 22:27
Информация
Посетители, находящиеся в группе Гости, не могут оставлять комментарии к данной публикации.