Панель пользователя
Регистрация

Воспользуйтесь социальными сетями для входа на https://freerutor.com

vk odnoklassniki facebook mailru yandex google
Популярное
Счетчик
Голосуй за нас
VIP на сайте
Популярное
Товары интернет магазина
загрузка...

В глубине леса / In fondo al bosco (2015) HDTVRip 1080p

В глубине леса / In fondo al bosco (2015) HDTVRip 1080p
Участники торрент обмена
Сидов Пиров Скачали
4 0 344
Характеристика
Размер Файлы
6.17 GB
Релиз группа
Поделиться раздачей
Фильмы (720,1080,Blu-Ray)
Наименование: В глубине леса
Оригинальное наименование: In fondo al bosco
Категория: Триллер
Произведено: Италия / One More Pictures, Sky, Trentino Film Commission
Режиссер постановщик: Стефано Лодовичи
В главных ролях: Филиппо Нигро, Камилла Филиппи, Джованни Веттораццо, Тео Ачилле Каприо, Стефано Петро Детассис, Мария Виктория Барелла, Роберто Гудесе, Лука Филиппи, Алессандро Кораби, Антонелла Арсени
Краткое описание: Зимой 2010-го года 4-летний Томми Кончи исчезает во время фестиваля, на котором люди переодеваются дьяволами. Пять лет спустя в полицию попадает безымянный ребенок без документов, анализ ДНК показывает, что это Томми. Отец, Мануэль, которого все эти годы обвиняли в пропаже сына, может, наконец, его обнять. Однако мать, Линда, по ряду признаков подозревает, что этот ребенок на самом деле не её сын.
  • Видео данные: MPEG-4 AVC, 9257 Кбит/с, 1920x816
    Аудио данные: Русский (АС3, 2 ch, 192 Кбит/с), итальянский (АС3, 6 ch, 384 Кбит/с)
    Перевод: Любительский одноголосый [datynet по переводу В. Даль]
    Субтитры: русские, английские, итальянские
    Продолжительность: 01:28:04
  • В глубине леса / In fondo al bosco (2015) HDTVRip 1080p В глубине леса / In fondo al bosco (2015) HDTVRip 1080p В глубине леса / In fondo al bosco (2015) HDTVRip 1080p
  • Формат : Matroska
    Версия формата : Version 4 / Version 2
    Размер файла : 6,17 Гбайт
    Продолжительность : 1 ч. 28 м.
    Общий поток : 10,0 Мбит/сек
    Дата кодирования : UTC 2016-05-25 14:15:04
    Программа кодирования : mkvmerge v7.9.0 ('Birds') 64bit
    Библиотека кодирования : libebml v1.3.1 + libmatroska v1.4.2
    DURATION : 01:28:02.400000000
    NUMBER_OF_FRAMES : 165075
    NUMBER_OF_BYTES : 253555200
    _STATISTICS_WRITING_APP : mkvmerge v8.9.0 ('Father Daughter') 64bit
    _STATISTICS_WRITING_DATE_UTC : 2020-10-20 18:10:21
    _STATISTICS_TAGS : BPS DURATION NUMBER_OF_FRAMES NUMBER_OF_BYTES

    Видео
    Идентификатор : 1
    Формат : AVC
    Формат/Информация : Advanced Video Codec
    Профиль формата : High@L4.1
    Параметр CABAC формата : Да
    Параметр ReFrames формата : 4 кадра
    Идентификатор кодека : V_MPEG4/ISO/AVC
    Продолжительность : 1 ч. 28 м.
    Битрейт : 9257 Кбит/сек
    Ширина : 1920 пикселей
    Высота : 816 пикселей
    Соотношение сторон : 2,35:1
    Режим частоты кадров : Постоянный
    Частота кадров : 25,000 кадров/сек
    Цветовое пространство : YUV
    Субдискретизация насыщенности : 4:2:0
    Битовая глубина : 8 бит
    Тип развёртки : Прогрессивная
    Бит/(Пиксели*Кадры) : 0.236
    Размер потока : 5,70 Гбайт (92%)
    Библиотека кодирования : x264 core 142 r2479 dd79a61
    Настройки программы : cabac=1 / ref=1 / deblock=1:-1:-1 / analyse=0x3:0x113 / me=hex / subme=2 / psy=1 / psy_rd=1.00:0.15 / mixed_ref=0 / me_range=16 / chroma_me=1 / trellis=0 / 8x8dct=1 / cqm=0 / deadzone=21,11 / fast_pskip=1 / chroma_qp_offset=0 / threads=12 / lookahead_threads=4 / sliced_threads=0 / nr=0 / decimate=1 / interlaced=0 / bluray_compat=0 / constrained_intra=0 / bframes=3 / b_pyramid=2 / b_adapt=1 / b_bias=0 / direct=1 / weightb=1 / open_gop=0 / weightp=1 / keyint=250 / keyint_min=25 / scenecut=40 / intra_refresh=0 / rc_lookahead=10 / rc=crf / mbtree=1 / crf=13.5 / qcomp=0.60 / qpmin=0 / qpmax=69 / qpstep=4 / vbv_maxrate=62500 / vbv_bufsize=78125 / crf_max=0.0 / nal_hrd=none / filler=0 / ip_ratio=1.40 / aq=1:1.00
    Default : Да
    Forced : Нет
    Цветовой диапазон : Limited
    Основные цвета : BT.709
    Характеристики трансфера : BT.709
    Коэффициенты матрицы : BT.709
    DURATION : 01:28:02.400000000
    NUMBER_OF_FRAMES : 132060
    NUMBER_OF_BYTES : 6245443357
    _STATISTICS_WRITING_APP : mkvmerge v8.9.0 ('Father Daughter') 64bit
    _STATISTICS_WRITING_DATE_UTC : 2020-10-20 18:10:21
    _STATISTICS_TAGS : BPS DURATION NUMBER_OF_FRAMES NUMBER_OF_BYTES

    Аудио #1
    Идентификатор : 2
    Формат : AC-3
    Формат/Информация : Audio Coding 3
    Расширение режима : CM (complete main)
    Параметр Endianness формата : Big
    Идентификатор кодека : A_AC3
    Продолжительность : 1 ч. 28 м.
    Вид битрейта : Постоянный
    Битрейт : 192 Кбит/сек
    Каналы : 2 канала
    Расположение каналов : Front: L R
    Частота : 48,0 КГц
    Метод сжатия : С потерями
    Задержка видео : -80 мс.
    Размер потока : 121 Мбайт (2%)
    Заголовок : datynet
    Язык : Russian
    Default : Да
    Forced : Нет

    Аудио #2
    Идентификатор : 3
    Формат : AC-3
    Формат/Информация : Audio Coding 3
    Расширение режима : CM (complete main)
    Параметр Endianness формата : Big
    Идентификатор кодека : A_AC3
    Продолжительность : 1 ч. 28 м.
    Вид битрейта : Постоянный
    Битрейт : 384 Кбит/сек
    Каналы : 6 каналов
    Расположение каналов : Front: L C R, Side: L R, LFE
    Частота : 48,0 КГц
    Метод сжатия : С потерями
    Задержка видео : -80 мс.
    Размер потока : 242 Мбайт (4%)
    Язык : Italian
    Default : Нет
    Forced : Нет

    Текст #1
    Идентификатор : 4
    Формат : UTF-8
    Идентификатор кодека : S_TEXT/UTF8
    Идентификатор кодека/Информация : UTF-8 Plain Text
    Заголовок : Владимир Даль
    Язык : Russian
    Default : Да
    Forced : Нет

    Текст #2
    Идентификатор : 5
    Формат : UTF-8
    Идентификатор кодека : S_TEXT/UTF8
    Идентификатор кодека/Информация : UTF-8 Plain Text
    Язык : English
    Default : Нет
    Forced : Нет

    Текст #3
    Идентификатор : 6
    Формат : UTF-8
    Идентификатор кодека : S_TEXT/UTF8
    Идентификатор кодека/Информация : UTF-8 Plain Text
    Язык : Italian
    Default : Нет
    Forced : Нет
1.0 из 10
голосов: 1
/10
/10
grab777 25-05-2016, 22:16
Информация
Посетители, находящиеся в группе Гости, не могут оставлять комментарии к данной публикации.