Панель пользователя
Регистрация

Воспользуйтесь социальными сетями для входа на https://freerutor.com

vk odnoklassniki facebook mailru yandex google
Популярное
Счетчик
Голосуй за нас
VIP на сайте
Популярное
Товары интернет магазина
загрузка...

Бешеные / Enragés (2015) BDRip-AVC | Лицензия

Бешеные / Enragés (2015) BDRip-AVC | Лицензия
Участники торрент обмена
Сидов Пиров Скачали
5 0 1218
Характеристика
Размер Файлы
1.84 GB
Поделиться раздачей
Фильмы (AVC)
Наименование: Бешеные
Оригинальное наименование: Enragés
Категория: Боевик, триллер, драма
Произведено: Франция, Канада / Black Dynamite films, Canal+
Режиссер постановщик: Эрик Ханнецо
В главных ролях: Ламбер Вильсон, Гийом Гуи, Виржини Ледуайен, Франк Гастамбид, Франсуа Арно, Лоран Люка, Александр Гойетт, Пьер Лебо, Дэйв Лапоммерей
Краткое описание: После ограбления банка трое отчаянных преступников берут в заложники молодую женщину и отца с ребёнком. Это станет началом жестокой поездки, которую не все из них переживут.
  • Видео данные: MPEG-4 AVC, 2100 Кбит/с, 1024x428
    Аудио данные: Русский (AC3, 6 ch, 384 Кбит/с), французский (AC3, 6 ch, 448 Кбит/с)
    Перевод: Профессиональное многоголосное [iTunes]
    Продолжительность: 01:29:48
  • Бешеные / Enragés (2015) BDRip-AVC | Лицензия Бешеные / Enragés (2015) BDRip-AVC | Лицензия Бешеные / Enragés (2015) BDRip-AVC | Лицензия
  • Общее
    Уникальный идентификатор : 217056139172465960300132229431370105197 (0xA34B7DE6E6E39E598312D800AFDAC16D)
    Полное имя : BeweHye.2015.BDRip.AVC.mkv
    Формат : Matroska
    Версия формата : Version 4 / Version 2
    Размер файла : 1,84 Гбайт
    Продолжительность : 1 ч. 29 м.
    Общий поток : 2933 Кбит/сек
    Дата кодирования : UTC 2016-05-15 19:46:27
    Программа кодирования : mkvmerge v9.1.0 ('Little Earthquakes') 64bit
    Библиотека кодирования : libebml v1.3.3 + libmatroska v1.4.4
    DURATION : 01:29:48.000000000
    NUMBER_OF_FRAMES : 168375
    NUMBER_OF_BYTES : 301728000
    _STATISTICS_WRITING_APP : mkvmerge v9.1.0 ('Little Earthquakes') 64bit
    _STATISTICS_WRITING_DATE_UTC : 2016-05-15 19:46:27
    _STATISTICS_TAGS : BPS DURATION NUMBER_OF_FRAMES NUMBER_OF_BYTES

    Видео
    Идентификатор : 1
    Формат : AVC
    Формат/Информация : Advanced Video Codec
    Профиль формата : High@L4.1
    Параметр CABAC формата : Да
    Параметр ReFrames формата : 12 кадров
    Идентификатор кодека : V_MPEG4/ISO/AVC
    Продолжительность : 1 ч. 29 м.
    Битрейт : 2100 Кбит/сек
    Ширина : 1024 пикселя
    Высота : 428 пикселей
    Соотношение сторон : 2,40:1
    Режим частоты кадров : Постоянный
    Частота кадров : 25,000 кадров/сек
    Цветовое пространство : YUV
    Субдискретизация насыщенности : 4:2:0
    Битовая глубина : 8 бит
    Тип развёртки : Прогрессивная
    Бит/(Пиксели*Кадры) : 0.192
    Размер потока : 1,28 Гбайт (70%)
    Библиотека кодирования : x264 core 148 r2638 7599210
    Настройки программы : cabac=1 / ref=12 / deblock=1:-3:-3 / analyse=0x3:0x133 / me=umh / subme=11 / psy=1 / psy_rd=1.05:0.20 / mixed_ref=1 / me_range=64 / chroma_me=1 / trellis=2 / 8x8dct=1 / cqm=0 / deadzone=21,11 / fast_pskip=1 / chroma_qp_offset=-3 / threads=6 / lookahead_threads=1 / sliced_threads=0 / nr=0 / decimate=0 / interlaced=0 / bluray_compat=0 / constrained_intra=0 / bframes=12 / b_pyramid=2 / b_adapt=2 / b_bias=0 / direct=3 / weightb=1 / open_gop=0 / weightp=2 / keyint=250 / keyint_min=25 / scenecut=0 / intra_refresh=0 / rc=2pass / mbtree=0 / bitrate=2100 / ratetol=1.0 / qcomp=0.60 / qpmin=0 / qpmax=69 / qpstep=4 / cplxblur=20.0 / qblur=0.5 / ip_ratio=1.40 / pb_ratio=1.30 / aq=1:1.00
    Default : Да
    Forced : Нет
    Цветовой диапазон : Limited
    Основные цвета : BT.709
    Характеристики трансфера : BT.709
    Коэффициенты матрицы : BT.709

    Аудио #1
    Идентификатор : 2
    Формат : AC-3
    Формат/Информация : Audio Coding 3
    Расширение режима : CM (complete main)
    Параметр Endianness формата : Big
    Идентификатор кодека : A_AC3
    Продолжительность : 1 ч. 29 м.
    Вид битрейта : Постоянный
    Битрейт : 384 Кбит/сек
    Каналы : 6 каналов
    Расположение каналов : Front: L C R, Side: L R, LFE
    Частота : 48,0 КГц
    Метод сжатия : С потерями
    Размер потока : 247 Мбайт (13%)
    Язык : Russian
    Default : Да
    Forced : Нет

    Аудио #2
    Идентификатор : 3
    Формат : AC-3
    Формат/Информация : Audio Coding 3
    Расширение режима : CM (complete main)
    Параметр Endianness формата : Big
    Идентификатор кодека : A_AC3
    Продолжительность : 1 ч. 29 м.
    Вид битрейта : Постоянный
    Битрейт : 448 Кбит/сек
    Каналы : 6 каналов
    Расположение каналов : Front: L C R, Side: L R, LFE
    Частота : 48,0 КГц
    Метод сжатия : С потерями
    Размер потока : 288 Мбайт (15%)
    Язык : English
    Default : Нет
    Forced : Нет

    Меню
    00:00:00.000 : en:00:00:00.000
    00:09:13.600 : en:00:09:13.600
    00:16:36.960 : en:00:16:36.960
    00:24:42.440 : en:00:24:42.440
    00:32:37.360 : en:00:32:37.360
    00:40:00.720 : en:00:40:00.720
    00:47:57.320 : en:00:47:57.320
    00:56:53.960 : en:00:56:53.960
    01:03:44.760 : en:01:03:44.760
    01:12:55.760 : en:01:12:55.760
    01:17:34.160 : en:01:17:34.160
    01:26:31.480 : en:01:26:31.480
8.3 из 10
голосов: 3
/10
/10
grab777 25-05-2016, 20:10
Информация
Посетители, находящиеся в группе Гости, не могут оставлять комментарии к данной публикации.