Панель пользователя
Регистрация

Воспользуйтесь социальными сетями для входа на https://freerutor.com

vk odnoklassniki facebook mailru yandex google
Популярное
Счетчик
Голосуй за нас
VIP на сайте
Популярное
Товары интернет магазина
загрузка...

До самого конца / All the Way (2016) HDTVRip-AVC

До самого конца / All the Way (2016) HDTVRip-AVC
Участники торрент обмена
Сидов Пиров Скачали
1 0 159
Характеристика
Размер Файлы
1.45 GB
Поделиться раздачей
Фильмы (AVC)
Наименование: До самого конца
Оригинальное наименование: All the Way
Категория: Драма, биография, история
Произведено: США / Amblin Entertainment, HBO Films, Moon Shot Entertainment, Tale Told Productions
Режиссер постановщик: Джей Роуч
В главных ролях: Энтони Маки, Брайан Крэнстон, Джо Мортон, Брэдли Уитфорд, Фрэнк Ланджелла, Стивен Рут, Мелисса Лео, Итэн Филлипс
Краткое описание: Линдон Джонсон становится президентом США на волне всеобщего хаоса, вызванного внезапным убийством Джона Кеннеди. В первый же год на посту главы государства Линдон Джонсон способствует принятию Акта о гражданских правах, который положит конец расовой сегрегации на юге страны — по крайней мере на бумаге.
  • Видео данные: MPEG-4 AVC, 1267 Кбит/с, 1024x576
    Аудио данные: Русский (AC3, 6 ch, 384 Кбит/с)
    Перевод: Профессиональный многоголосый [Amedia]
    Продолжительность: 02:05:49
  • До самого конца / All the Way (2016) HDTVRip-AVC До самого конца / All the Way (2016) HDTVRip-AVC До самого конца / All the Way (2016) HDTVRip-AVC
  • Format : Matroska
    Format version : Version 2
    File size : 1.45 GiB
    Duration : 2h 5mn
    Overall bit rate : 1 653 Kbps
    Encoded date : UTC 2016-05-24 11:14:10
    Writing application : mkvmerge v7.8.0 ('River Man') 32bit built on Apr 3 2015 12:11:22
    Writing library : libebml v1.3.1 + libmatroska v1.4.2

    Video
    ID : 1
    Format : AVC
    Format/Info : Advanced Video Codec
    Format profile : High@L3.1
    Format settings, CABAC : Yes
    Format settings, ReFrames : 4 frames
    Codec ID : V_MPEG4/ISO/AVC
    Duration : 2h 5mn
    Bit rate : 1 267 Kbps
    Width : 1 024 pixels
    Height : 576 pixels
    Display aspect ratio : 16:9
    Frame rate mode : Constant
    Frame rate : 25.000 fps
    Color space : YUV
    Chroma subsampling : 4:2:0
    Bit depth : 8 bits
    Scan type : Progressive
    Bits/(Pixel*Frame) : 0.086
    Stream size : 1.09 GiB (75%)
    Writing library : x264 core 146 r2538 121396c
    Encoding settings : cabac=1 / ref=3 / deblock=1:-1:-1 / analyse=0x3:0x113 / me=hex / subme=7 / psy=1 / psy_rd=1.00:0.20 / mixed_ref=1 / me_range=16 / chroma_me=1 / trellis=1 / 8x8dct=1 / cqm=0 / deadzone=21,11 / fast_pskip=1 / chroma_qp_offset=-3 / threads=6 / lookahead_threads=1 / sliced_threads=0 / nr=0 / decimate=0 / interlaced=0 / bluray_compat=0 / constrained_intra=0 / bframes=3 / b_pyramid=2 / b_adapt=1 / b_bias=0 / direct=1 / weightb=1 / open_gop=0 / weightp=2 / keyint=250 / keyint_min=25 / scenecut=40 / intra_refresh=0 / rc_lookahead=40 / rc=2pass / mbtree=1 / bitrate=1267 / ratetol=1.0 / qcomp=0.60 / qpmin=0 / qpmax=69 / qpstep=4 / cplxblur=20.0 / qblur=0.5 / vbv_maxrate=14000 / vbv_bufsize=14000 / nal_hrd=none / filler=0 / ip_ratio=1.40 / aq=1:1.00
    Default : Yes
    Forced : No

    Audio
    ID : 2
    Format : AC-3
    Format/Info : Audio Coding 3
    Mode extension : CM (complete main)
    Format settings, Endianness : Big
    Codec ID : A_AC3
    Duration : 2h 5mn
    Bit rate mode : Constant
    Bit rate : 384 Kbps
    Channel(s) : 6 channels
    Channel positions : Front: L C R, Side: L R, LFE
    Sampling rate : 48.0 KHz
    Compression mode : Lossy
    Stream size : 346 MiB (23%)
    Default : Yes
    Forced : No
5.0 из 10
голосов: 1
/10
/10
grab777 25-05-2016, 05:01
Информация
Посетители, находящиеся в группе Гости, не могут оставлять комментарии к данной публикации.