Панель пользователя
Регистрация

Воспользуйтесь социальными сетями для входа на https://freerutor.com

vk odnoklassniki facebook mailru yandex google
Популярное
Счетчик
Голосуй за нас
VIP на сайте
Популярное
Товары интернет магазина
загрузка...

Из тьмы / Первобытный страх / The Hallow / The Woods (2015) BDRip 720p | Лицензия

Из тьмы / Первобытный страх / The Hallow / The Woods (2015) BDRip 720p | Лицензия
Участники торрент обмена
Сидов Пиров Скачали
1 0 810
Характеристика
Размер Файлы
4.78 GB
Поделиться раздачей
Фильмы (720,1080,Blu-Ray)
Наименование: Из тьмы
Оригинальное наименование: The Hallow
Категория: Ужасы
Произведено: Великобритания, США, Ирландия / Altitude Film Entertainment, Fantastic Films Ltd., Hallow Films, Occupant Films
Режиссер постановщик: Корин Харди
В главных ролях: Джозеф Моул, Бояна Новакович, Майкл МакЭлхаттон, Гари Лайдон. Стюарт Грэхэм, Конор Крэйг Стефенс, Шон Тайрел, Билли Трэйнор
Краткое описание: Семейная пара переезжает в новый дом на краю леса, окутанного жуткими легендами. Его первобытные существа пытаются забрать у родителей младенца.
  • Видео данные: MPEG-4 AVC, 5884 Кбит/с, 1280x536
    Аудио данные: Русский (AC3, 6 ch, 384 Кбит/с), английский (AC3, 6 ch, 640 Кбит/с)
    Перевод: Дублированный [iTunes]
    Продолжительность: 01:37:08
  • Из тьмы / Первобытный страх / The Hallow / The Woods (2015) BDRip 720p | Лицензия Из тьмы / Первобытный страх / The Hallow / The Woods (2015) BDRip 720p | Лицензия Из тьмы / Первобытный страх / The Hallow / The Woods (2015) BDRip 720p | Лицензия
  • Format : Matroska
    Format version : Version 4 / Version 2
    File size : 4.78 GiB
    Duration : 1h 37mn
    Overall bit rate : 7 048 Kbps
    Movie name : Из тьмы. (Tonik)
    Encoded date : UTC 2016-05-24 05:37:33
    Writing application : mkvmerge v7.1.0 ('Good Love') 64bit built on Jul 27 2014 13:06:55
    Writing library : libebml v1.3.0 + libmatroska v1.4.1
    _STATISTICS_WRITING_APP : mkvmerge v7.1.0 ('Good Love') 64bit built on Jul 27 2014 13:06:55
    _STATISTICS_WRITING_DATE_UTC : 2016-05-24 05:37:33
    _STATISTICS_TAGS : BPS DURATION NUMBER_OF_FRAMES NUMBER_OF_BYTES
    DURATION : 01:32:05.101000000
    NUMBER_OF_FRAMES : 542
    NUMBER_OF_BYTES : 20435

    Video
    ID : 1
    Format : AVC
    Format/Info : Advanced Video Codec
    Format profile : High@L4.1
    Format settings, CABAC : Yes
    Format settings, ReFrames : 12 frames
    Codec ID : V_MPEG4/ISO/AVC
    Duration : 1h 37mn
    Bit rate : 5 884 Kbps
    Width : 1 280 pixels
    Height : 536 pixels
    Display aspect ratio : 2.40:1
    Frame rate mode : Constant
    Frame rate : 23.976 fps
    Color space : YUV
    Chroma subsampling : 4:2:0
    Bit depth : 8 bits
    Scan type : Progressive
    Bits/(Pixel*Frame) : 0.358
    Stream size : 3.99 GiB (83%)
    Writing library : x264 core 148 r2665 a01e339
    Encoding settings : cabac=1 / ref=12 / deblock=1:-3:-3 / analyse=0x3:0x133 / me=umh / subme=10 / psy=1 / psy_rd=1.03:0.00 / mixed_ref=1 / me_range=32 / chroma_me=1 / trellis=2 / 8x8dct=1 / cqm=0 / deadzone=21,11 / fast_pskip=0 / chroma_qp_offset=-2 / threads=6 / lookahead_threads=1 / sliced_threads=0 / nr=0 / decimate=0 / interlaced=0 / bluray_compat=0 / constrained_intra=0 / bframes=9 / b_pyramid=2 / b_adapt=2 / b_bias=0 / direct=3 / weightb=1 / open_gop=0 / weightp=2 / keyint=250 / keyint_min=24 / scenecut=40 / intra_refresh=0 / rc_lookahead=60 / rc=crf / mbtree=0 / crf=16.9 / qcomp=0.66 / qpmin=0 / qpmax=69 / qpstep=4 / vbv_maxrate=62500 / vbv_bufsize=78125 / crf_max=0.0 / nal_hrd=none / filler=0 / ip_ratio=1.30 / pb_ratio=1.20 / aq=3:0.70 / zones=54388,54464,crf=13.5
    Language : English
    Default : Yes
    Forced : No
    _STATISTICS_WRITING_APP : mkvmerge v7.1.0 ('Good Love') 64bit built on Jul 27 2014 13:06:55
    _STATISTICS_WRITING_DATE_UTC : 2016-05-24 05:37:33
    _STATISTICS_TAGS : BPS DURATION NUMBER_OF_FRAMES NUMBER_OF_BYTES
    DURATION : 01:36:59.898000000
    NUMBER_OF_FRAMES : 139538
    NUMBER_OF_BYTES : 4380984632

    Audio #1
    ID : 2
    Format : AC-3
    Format/Info : Audio Coding 3
    Mode extension : CM (complete main)
    Format settings, Endianness : Big
    Codec ID : A_AC3
    Duration : 1h 37mn
    Bit rate mode : Constant
    Bit rate : 384 Kbps
    Channel(s) : 6 channels
    Channel positions : Front: L C R, Side: L R, LFE
    Sampling rate : 48.0 KHz
    Bit depth : 16 bits
    Compression mode : Lossy
    Stream size : 266 MiB (5%)
    Language : Russian
    Default : Yes
    Forced : No

    Audio #2
    ID : 3
    Format : AC-3
    Format/Info : Audio Coding 3
    Mode extension : CM (complete main)
    Format settings, Endianness : Big
    Codec ID : A_AC3
    Duration : 1h 37mn
    Bit rate mode : Constant
    Bit rate : 640 Kbps
    Channel(s) : 6 channels
    Channel positions : Front: L C R, Side: L R, LFE
    Sampling rate : 48.0 KHz
    Bit depth : 16 bits
    Compression mode : Lossy
    Stream size : 444 MiB (9%)
    Language : English
    Default : No
    Forced : No

    Text #1
    ID : 4
    Format : UTF-8
    Codec ID : S_TEXT/UTF8
    Codec ID/Info : UTF-8 Plain Text
    Language : Russian
    Default : No
    Forced : No

    Text #2
    ID : 5
    Format : UTF-8
    Codec ID : S_TEXT/UTF8
    Codec ID/Info : UTF-8 Plain Text
    Title : SDH
    Language : English
    Default : No
    Forced : No

    Menu
    00:00:00.000 : en:00:00:00.000
    00:07:50.053 : en:00:07:50.053
    00:13:21.718 : en:00:13:21.718
    00:20:57.089 : en:00:20:57.089
    00:28:10.480 : en:00:28:10.480
    00:35:01.850 : en:00:35:01.850
    00:43:04.499 : en:00:43:04.499
    00:49:24.503 : en:00:49:24.503
    00:58:14.116 : en:00:58:14.116
    01:06:17.849 : en:01:06:17.849
    01:13:00.751 : en:01:13:00.751
    01:20:04.758 : en:01:20:04.758
5.0 из 10
голосов: 1
/10
/10
grab777 25-05-2016, 03:57
Информация
Посетители, находящиеся в группе Гости, не могут оставлять комментарии к данной публикации.