Панель пользователя
Регистрация

Воспользуйтесь социальными сетями для входа на https://freerutor.com

vk odnoklassniki facebook mailru yandex google
Популярное
Счетчик
Голосуй за нас
VIP на сайте
Популярное
Товары интернет магазина
загрузка...

И грянул шторм / The Finest Hours (2016) BDRip-AVC | Лицензия

И грянул шторм / The Finest Hours (2016) BDRip-AVC | Лицензия
Участники торрент обмена
Сидов Пиров Скачали
15 0 1529
Характеристика
Размер Файлы
2.09 GB
Релиз группа
Поделиться раздачей
Фильмы (AVC)
Наименование: И грянул шторм
Оригинальное наименование: The Finest Hours
Категория: боевик, триллер, драма, история
Произведено: США
Режиссер постановщик: Крэйг Гиллеспи
В главных ролях: Крис Пайн (Bernie Webber), Кейси Аффлек (Ray Sybert), Бен Фостер (Richard Livesey), Эрик Бана (Daniel Cluff), Холлидей Грейнджер (Miriam Webber), Джон Ортис (Wallace Quirey), Кайл Галлнер (Andy Fitzgerald), Джон Магаро (Ervin Maske), Грэм МакТавиш (Frank Fauteux), Майкл Рэймонд-Джеймс (D.A. Brown), Бо Напп (Mel Gouthro), Джош Стюарт (Tchuda Southerland)
Краткое описание: Сюжет фильма основан на реальных событиях, произошедших в 1952 году, когда сотрудники береговой охраны в самый разгар шторма, используя деревянные моторные лодки, пытались спасти экипаж двух нефтяных танкеров.
  • Видео данные: MPEG-4 AVC, 1779 Кбит/с, 1024x426
    Аудио данные: Русский (AC3, 6 ch, 384 Кбит/с), английский (АС3, 6 ch, 384 Кбит/с)
    Перевод: Дубляж - [iTunes]
    Продолжительность: 01:57:18
    Субтитры: русские (forced), русские (full), английские (full)
  • И грянул шторм / The Finest Hours (2016) BDRip-AVC | Лицензия И грянул шторм / The Finest Hours (2016) BDRip-AVC | Лицензия И грянул шторм / The Finest Hours (2016) BDRip-AVC | Лицензия
  • General
    Unique ID : 203845057069247125593893769520564387202 (0x995B2143E95EB8BF905C42F45213BD82)
    Complete name : D:downloadThe.Finest.Hours.2016.BDRip-AVC by schultz R.G.Resident.mkv
    Format : Matroska
    Format version : Version 4 / Version 2
    File size : 2.09 GiB
    Duration : 1h 57mn
    Overall bit rate : 2 548 Kbps
    Movie name : The.Finest.Hours.2016.D.BDRip720p
    Encoded date : UTC 2016-05-23 20:08:40
    Writing application : mkvmerge v8.9.0 ('Father Daughter') 64bit
    Writing library : libebml v1.3.3 + libmatroska v1.4.4
    DURATION : 01:48:44.439000000
    NUMBER_OF_FRAMES : 942
    NUMBER_OF_BYTES : 37779
    _STATISTICS_WRITING_APP : mkvmerge v8.9.0 ('Father Daughter') 64bit
    _STATISTICS_WRITING_DATE_UTC : 2016-05-23 20:08:40
    _STATISTICS_TAGS : BPS DURATION NUMBER_OF_FRAMES NUMBER_OF_BYTES

    Video
    ID : 1
    Format : AVC
    Format/Info : Advanced Video Codec
    Format profile : High@L4.1
    Format settings, CABAC : Yes
    Format settings, ReFrames : 12 frames
    Codec ID : V_MPEG4/ISO/AVC
    Duration : 1h 57mn
    Bit rate : 1 779 Kbps
    Width : 1 024 pixels
    Height : 426 pixels
    Display aspect ratio : 2.40:1
    Frame rate : 23.976 fps
    Color space : YUV
    Chroma subsampling : 4:2:0
    Bit depth : 8 bits
    Scan type : Progressive
    Bits/(Pixel*Frame) : 0.170
    Stream size : 1.42 GiB (68%)
    Writing library : x264 core 146 r2538 121396c
    Encoding settings : cabac=1 / ref=12 / deblock=1:-3:-3 / analyse=0x3:0x113 / me=umh / subme=11 / psy=1 / psy_rd=1.00:0.00 / mixed_ref=1 / me_range=48 / chroma_me=1 / trellis=2 / 8x8dct=1 / cqm=0 / deadzone=21,11 / fast_pskip=0 / chroma_qp_offset=-2 / threads=12 / lookahead_threads=3 / sliced_threads=0 / nr=0 / decimate=0 / interlaced=0 / bluray_compat=0 / constrained_intra=0 / bframes=13 / b_pyramid=2 / b_adapt=2 / b_bias=0 / direct=3 / weightb=1 / open_gop=0 / weightp=2 / keyint=240 / keyint_min=23 / scenecut=40 / intra_refresh=0 / rc_lookahead=40 / rc=2pass / mbtree=1 / bitrate=1779 / ratetol=1.0 / qcomp=0.60 / qpmin=0 / qpmax=69 / qpstep=4 / cplxblur=20.0 / qblur=0.5 / vbv_maxrate=14000 / vbv_bufsize=14000 / nal_hrd=none / filler=0 / ip_ratio=1.40 / aq=1:1.00
    Language : English
    Default : Yes
    Forced : No
    DURATION : 01:57:18.585000000
    NUMBER_OF_FRAMES : 168757
    NUMBER_OF_BYTES : 1564702913
    _STATISTICS_WRITING_APP : mkvmerge v8.9.0 ('Father Daughter') 64bit
    _STATISTICS_WRITING_DATE_UTC : 2016-05-23 20:08:40
    _STATISTICS_TAGS : BPS DURATION NUMBER_OF_FRAMES NUMBER_OF_BYTES

    Audio #1
    ID : 2
    Format : AC-3
    Format/Info : Audio Coding 3
    Mode extension : CM (complete main)
    Codec ID : A_AC3
    Duration : 1h 57mn
    Bit rate mode : Constant
    Bit rate : 384 Kbps
    Channel(s) : 6 channels
    Channel positions : Front: L C R, Side: L R, LFE
    Sampling rate : 48.0 KHz
    Bit depth : 16 bits
    Compression mode : Lossy
    Delay relative to video : 800ms
    Stream size : 322 MiB (15%)
    Language : Russian
    Default : Yes
    Forced : No

    Audio #2
    ID : 3
    Format : AC-3
    Format/Info : Audio Coding 3
    Mode extension : CM (complete main)
    Codec ID : A_AC3
    Duration : 1h 57mn
    Bit rate mode : Constant
    Bit rate : 384 Kbps
    Channel(s) : 6 channels
    Channel positions : Front: L C R, Side: L R, LFE
    Sampling rate : 48.0 KHz
    Bit depth : 16 bits
    Compression mode : Lossy
    Stream size : 322 MiB (15%)
    Language : English
    Default : No
    Forced : No

    Text #1
    ID : 4
    Format : UTF-8
    Codec ID : S_TEXT/UTF8
    Codec ID/Info : UTF-8 Plain Text
    Title : forced
    Language : Russian
    Default : Yes
    Forced : No

    Text #2
    ID : 5
    Format : UTF-8
    Codec ID : S_TEXT/UTF8
    Codec ID/Info : UTF-8 Plain Text
    Title : full
    Language : Russian
    Default : No
    Forced : No

    Text #3
    ID : 6
    Format : UTF-8
    Codec ID : S_TEXT/UTF8
    Codec ID/Info : UTF-8 Plain Text
    Title : full
    Language : English
    Default : No
    Forced : No
10.0 из 10
голосов: 3
/10
/10
schultz 23-05-2016, 23:46
Информация
Посетители, находящиеся в группе Гости, не могут оставлять комментарии к данной публикации.