Панель пользователя
Регистрация

Воспользуйтесь социальными сетями для входа на https://freerutor.com

vk odnoklassniki facebook mailru yandex google
Популярное
Счетчик
Голосуй за нас
VIP на сайте
Популярное
Товары интернет магазина
загрузка...

СуперБобровы (2016) BDRip-AVC | Лицензия

СуперБобровы (2016) BDRip-AVC | Лицензия
Участники торрент обмена
Сидов Пиров Скачали
82 0 6573
Характеристика
Размер Файлы
1.94 GB
Релиз группа
Поделиться раздачей
Фильмы (AVC)
Наименование: СуперБобровы
Категория: Комедия, семейный, фантастика
Произведено: Россия / Yellow, Black & White
Режиссер постановщик: Дмитрий Дьяченко
В главных ролях: Павел Деревянко, Оксана Акиньшина, Роман Мадянов, Владимир Толоконников, Ирина Пегова, Даниил Вахрушев, Софья Мицкевич, Виталий Кищенко, Алексей Хардиков, Андрей Ребенков, Александр Карпиловский
Краткое описание: Вместо десерта на ужин семейство Бобровых получило… метеорит. Настоящий, большой, из космоса. Благодаря ему Бобровы вдруг приобретают немыслимые сверхспособности. Дед становится бессмертным, а отец теперь может телепортироваться. Сын начинает понимать собачий язык, а его сёстры получают суперсилу, возможность летать и быть невидимой. Единственное ограничение — способности действуют только когда вся семейка в сборе. Короче, у заурядной, среднестатистической ячейки общества появляется шанс превратиться в отряд настоящих супергероев. Вот только вместо того, чтобы спасать мир, они решают ограбить ближайший банк…
  • Видео данные: MPEG-4 AVC, 2589 Кбит/с, 1024х430
    Аудио данные: AC3, 6 ch, 448 Кбит/с
    Перевод: Оригинал (Русский)
    Продолжительность: 01:31:28
  • СуперБобровы (2016) BDRip-AVC | Лицензия СуперБобровы (2016) BDRip-AVC | Лицензия СуперБобровы (2016) BDRip-AVC | Лицензия
  • Общее
    Уникальный идентификатор : 226243139327071978347669149005398799360 (0xAA34D7FB0897626F98D2776CC365F400)
    Полное имя : D:ЗагрузкиSuperBobrovy.2016.x264.BDRip.(AVC).ExKinoRay.mkv
    Формат : Matroska
    Версия формата : Version 2
    Размер файла : 1,94 Гбайт
    Продолжительность : 1 ч. 31 м.
    Общий поток : 3035 Кбит/сек
    Название фильма : СуперБобровы.2016.Rip by: ollan
    Дата кодирования : UTC 2016-05-21 11:50:02
    Программа кодирования : mkvmerge v5.6.0 ('Kenya Kane') built on May 27 2012 16:44:04
    Библиотека кодирования : libebml v1.2.3 + libmatroska v1.3.0
    Attachements : Cover - SuperBobrovy..png

    Видео
    Идентификатор : 1
    Формат : AVC
    Формат/Информация : Advanced Video Codec
    Профиль формата : High@L4.1
    Параметр CABAC формата : Да
    Параметр ReFrames формата : 12 кадров
    Идентификатор кодека : V_MPEG4/ISO/AVC
    Продолжительность : 1 ч. 31 м.
    Битрейт : 2589 Кбит/сек
    Ширина : 1024 пикселя
    Высота : 430 пикселей
    Соотношение сторон : 2,40:1
    Режим частоты кадров : Постоянный
    Частота кадров : 25,000 кадров/сек
    Цветовое пространство : YUV
    Субдискретизация насыщенности : 4:2:0
    Битовая глубина : 8 бит
    Тип развёртки : Прогрессивная
    Бит/(Пиксели*Кадры) : 0.235
    Размер потока : 1,61 Гбайт (83%)
    Библиотека кодирования : x264 core 146 r2538 121396c
    Настройки программы : cabac=1 / ref=12 / deblock=1:-3:-3 / analyse=0x3:0x133 / me=umh / subme=11 / psy=1 / psy_rd=1.05:0.15 / mixed_ref=1 / me_range=48 / chroma_me=1 / trellis=2 / 8x8dct=1 / cqm=0 / deadzone=21,11 / fast_pskip=0 / chroma_qp_offset=-3 / threads=12 / lookahead_threads=2 / sliced_threads=0 / nr=0 / decimate=0 / interlaced=0 / bluray_compat=0 / constrained_intra=0 / bframes=9 / b_pyramid=2 / b_adapt=2 / b_bias=0 / direct=3 / weightb=1 / open_gop=0 / weightp=2 / keyint=250 / keyint_min=25 / scenecut=40 / intra_refresh=0 / rc_lookahead=40 / rc=2pass / mbtree=0 / bitrate=2589 / ratetol=1.0 / qcomp=0.60 / qpmin=0 / qpmax=69 / qpstep=4 / cplxblur=20.0 / qblur=0.5 / vbv_maxrate=50000 / vbv_bufsize=62500 / nal_hrd=none / filler=0 / ip_ratio=1.40 / pb_ratio=1.30 / aq=1:1.00
    Язык : Russian
    Default : Да
    Forced : Нет

    Аудио
    Идентификатор : 2
    Формат : AC-3
    Формат/Информация : Audio Coding 3
    Расширение режима : CM (complete main)
    Параметр Endianness формата : Big
    Идентификатор кодека : A_AC3
    Продолжительность : 1 ч. 31 м.
    Вид битрейта : Постоянный
    Битрейт : 448 Кбит/сек
    Каналы : 6 каналов
    Расположение каналов : Front: L C R, Side: L R, LFE
    Частота : 48,0 КГц
    Частота кадров : 31,250 кадров/сек (1536 spf)
    Метод сжатия : С потерями
    Размер потока : 293 Мбайт (15%)
    Язык : Russian
    Default : Да
    Forced : Нет

    Меню
    00:00:00.000 : ru:Chapter 01
    00:01:06.600 : ru:Chapter 02
    00:11:08.880 : ru:Chapter 03
    00:22:22.240 : ru:Chapter 04
    00:33:08.680 : ru:Chapter 05
    00:44:41.280 : ru:Chapter 06
    00:56:54.600 : ru:Chapter 07
    01:10:51.040 : ru:Chapter 08
    01:21:54.840 : ru:Chapter 09
8.2 из 10
голосов: 5
/10
/10
grab777 23-05-2016, 09:59
Информация
Посетители, находящиеся в группе Гости, не могут оставлять комментарии к данной публикации.