Панель пользователя
Регистрация

Воспользуйтесь социальными сетями для входа на https://freerutor.com

vk odnoklassniki facebook mailru yandex google
Популярное
Счетчик
Голосуй за нас
VIP на сайте
Популярное
Товары интернет магазина
загрузка...

Искры и угольки / Sparks and Embers (2015) DVDRip

Искры и угольки / Sparks and Embers (2015) DVDRip
Участники торрент обмена
Сидов Пиров Скачали
13 0 2606
Характеристика
Размер Файлы
1.37 GB
Релиз группа
Поделиться раздачей
Фильмы (DVDRip,SATRip)
Наименование: Искры и угольки
Оригинальное наименование: Sparks and Embers
Категория: Драма, мелодрама, комедия
Произведено: Великобритания / Cinemagine, GSP Studios, Art4noise
Режиссер постановщик: Гэвин Бойтер
В главных ролях: Крис Маршалл, Аннелиз Эм, Валид Ахтар, Шон Бэйкер, Капиль Парих, Джейд Александр, Кен Бойтер
Краткое описание: Том и Элоиза встретились по вине неблагоприятных обстоятельств, застряв в лифте после того, как Элоиза уволила Тома. Тем не менее, между ними проскочила искра. 5 лет спустя они расстаются и Элоиза возвращается в Францию. У Тома есть 45 минут, чтобы вернуть ее.
  • Видео данные: XviD, 1846 Кбит/с, 720x400
    Аудио данные: AC3, 2 ch, 448 Кбит/с
    Перевод: Любительский многоголосый
    Продолжительность: 01:25:01
  • Искры и угольки / Sparks and Embers (2015) DVDRip Искры и угольки / Sparks and Embers (2015) DVDRip Искры и угольки / Sparks and Embers (2015) DVDRip
  • General
    Format : AVI
    Format/Info : Audio Video Interleave
    Overall bit rate : 2 486 Kbps
    Writing application : VirtualDubMod 1.5.10.3 | (build 2550/release)
    Writing library : VirtualDubMod build 2550/release

    Video
    ID : 0
    Format : MPEG-4 Visual
    Format profile : Advanced Simple@L5
    Format settings, BVOP : 2
    Format settings, QPel : No
    Format settings, GMC : No warppoints
    Format settings, Matrix : Custom
    Codec ID : XVID
    Codec ID/Hint : XviD
    Bit rate : 1846 Kbps
    Width : 720 pixels
    Height : 400 pixels
    Display aspect ratio : 16:9
    Frame rate : 25.000 fps
    Color space : YUV
    Chroma subsampling : 4:2:0
    Bit depth : 8 bits
    Scan type : Progressive
    Compression mode : Lossy
    Bits/(Pixel*Frame) : 0.282
    Stream size : 14.2 MiB (82%)
    Writing library : XviD 1.2.1 (UTC 2008-12-04)

    Audio
    ID : 1
    Format : AC-3
    Format/Info : Audio Coding 3
    Mode extension : CM (complete main)
    Format settings, Endianness : Big
    Codec ID : 2000
    Bit rate mode : Constant
    Bit rate : 448 Kbps
    Channel(s) : 2 channels
    Channel positions : Front: L R
    Sampling rate : 48.0 KHz
    Compression mode : Lossy
    Delay relative to video : 24ms
    Stream size : 3.15 MiB (18%)
    Alignment : Split accross interleaves
    Interleave, duration : 40 ms (1.01 video frame)
    Interleave, preload duration : 500 ms
8.0 из 10
голосов: 1
/10
/10
grab777 23-05-2016, 08:30

msobotka | 24-05-2016, 00:23 | Статус: Оффлайн

Дебют. Снят на копейки и где-то за три дня. Не о чем главная героиня, какая там любовь, она же дерево...Дебют снят настолько скучно и настолько не дерзко по хорошему, что хочется после первых пяти минут заняться вязанием - это интереснее...

STARBIT | 23-05-2016, 09:10 | Статус: Оффлайн

присутствует реклама
Информация
Посетители, находящиеся в группе Гости, не могут оставлять комментарии к данной публикации.