Панель пользователя
Регистрация

Воспользуйтесь социальными сетями для входа на https://freerutor.com

vk odnoklassniki facebook mailru yandex google
Популярное
Счетчик
Голосуй за нас
VIP на сайте
Популярное
Товары интернет магазина
загрузка...

Боги Египта / Gods of Egypt (2016) HDRip-AVC | Лицензия

Боги Египта / Gods of Egypt (2016) HDRip-AVC | Лицензия
Участники торрент обмена
Сидов Пиров Скачали
75 5 7279
Характеристика
Размер Файлы
3.03 GB
Релиз группа
Поделиться раздачей
Фильмы (AVC)
Наименование: Боги Египта
Оригинальное наименование: Gods of Egypt
Категория: Фэнтези, боевик, приключения
Произведено: США / Mystery Clock Cinema, Pyramania, Summit Entertainment, Thunder Road
Режиссер постановщик: Алекс Пройас
В главных ролях: Брентон Туэйтс, Джерард Батлер, Николай Костер-Валдау, Чэдвик Боузмэн, Элоди Юнг, Кортни Итон, Руфус Сьюэлл, Джеффри Раш, Брайан Браун, Рэйчел Блэйк, Эмма Бут, Александр Инглэнд, Горан Д’Клюе, Йайа Ден
Краткое описание: Некогда мирное и процветающее египетское царство погружается в хаос: беспощадный бог тьмы Сет убивает своего брата Осириса и узурпирует трон. Вызов ему неожиданно бросает простой смертный, находчивый молодой вор. Чтобы вернуть к жизни свою прекрасную возлюбленную, ему приходится заручиться поддержкой могущественного и мстительного бога Гора. Лишь выдержав испытание на прочность и принеся в жертву все самое дорогое, им удастся противостоять Сету и его приспешникам в мире живых и мире мертвых.
  • Видео данные: MPEG-4 AVC, 2517 Кбит/с, 1024x426
    Аудио данные: Русский, английский (AC3, 6 ch, 448 Кбит/с)
    Перевод: Дублированный [Централ Партнершип]
    Cубтитры: Английские
    Продолжительность: 02:07:03
  • Боги Египта / Gods of Egypt (2016) HDRip-AVC | Лицензия Боги Египта / Gods of Egypt (2016) HDRip-AVC | Лицензия Боги Египта / Gods of Egypt (2016) HDRip-AVC | Лицензия
  • Общее
    Уникальный идентификатор : 231150283578609178412624842831005045650 (0xADE5ECDF2277FE82AE0EAC0547B15392)
    Полное имя : D:\Загрузки\Gods.Of.Egypt.2016.x264.HDRip.(AVC).ExKinoRay.mkv
    Формат : Matroska
    Версия формата : Version 2
    Размер файла : 3,03 Гбайт
    Продолжительность : 2 ч. 7 м.
    Общий поток : 3414 Кбит/сек
    Название фильма : Боги Египта.2016.Rip by: ollan
    Дата кодирования : UTC 2016-05-20 06:48:54
    Программа кодирования : mkvmerge v5.6.0 ('Kenya Kane') built on May 27 2012 16:44:04
    Библиотека кодирования : libebml v1.2.3 + libmatroska v1.3.0
    Attachements : Cover - Gods.Of.Egypt..png

    Видео
    Идентификатор : 1
    Формат : AVC
    Формат/Информация : Advanced Video Codec
    Профиль формата : High@L4.1
    Параметр CABAC формата : Да
    Параметр ReFrames формата : 12 кадров
    Идентификатор кодека : V_MPEG4/ISO/AVC
    Продолжительность : 2 ч. 7 м.
    Битрейт : 2517 Кбит/сек
    Ширина : 1024 пикселя
    Высота : 426 пикселей
    Соотношение сторон : 2,40:1
    Режим частоты кадров : Постоянный
    Частота кадров : 23,976 (24000/1001) кадра/сек
    Цветовое пространство : YUV
    Субдискретизация насыщенности : 4:2:0
    Битовая глубина : 8 бит
    Тип развёртки : Прогрессивная
    Бит/(Пиксели*Кадры) : 0.241
    Размер потока : 2,17 Гбайт (72%)
    Библиотека кодирования : x264 core 146 r2538 121396c
    Настройки программы : cabac=1 / ref=12 / deblock=1:-3:-3 / analyse=0x3:0x133 / me=umh / subme=11 / psy=1 / psy_rd=1.05:0.15 / mixed_ref=1 / me_range=48 / chroma_me=1 / trellis=2 / 8x8dct=1 / cqm=0 / deadzone=21,11 / fast_pskip=0 / chroma_qp_offset=-3 / threads=12 / lookahead_threads=2 / sliced_threads=0 / nr=0 / decimate=0 / interlaced=0 / bluray_compat=0 / constrained_intra=0 / bframes=9 / b_pyramid=2 / b_adapt=2 / b_bias=0 / direct=3 / weightb=1 / open_gop=0 / weightp=2 / keyint=240 / keyint_min=23 / scenecut=40 / intra_refresh=0 / rc_lookahead=40 / rc=2pass / mbtree=0 / bitrate=2517 / ratetol=1.0 / qcomp=0.60 / qpmin=0 / qpmax=69 / qpstep=4 / cplxblur=20.0 / qblur=0.5 / vbv_maxrate=50000 / vbv_bufsize=62500 / nal_hrd=none / filler=0 / ip_ratio=1.40 / pb_ratio=1.30 / aq=1:1.00
    Язык : English
    Default : Да
    Forced : Нет

    Аудио #1
    Идентификатор : 2
    Формат : AC-3
    Формат/Информация : Audio Coding 3
    Расширение режима : CM (complete main)
    Параметр Endianness формата : Big
    Идентификатор кодека : A_AC3
    Продолжительность : 2 ч. 7 м.
    Вид битрейта : Постоянный
    Битрейт : 448 Кбит/сек
    Каналы : 6 каналов
    Расположение каналов : Front: L C R, Side: L R, LFE
    Частота : 48,0 КГц
    Частота кадров : 31,250 кадров/сек (1536 spf)
    Метод сжатия : С потерями
    Размер потока : 407 Мбайт (13%)
    Заголовок : Дублированный (Централ Партнершип)
    Язык : Russian
    Default : Да
    Forced : Нет

    Аудио #2
    Идентификатор : 3
    Формат : AC-3
    Формат/Информация : Audio Coding 3
    Расширение режима : CM (complete main)
    Параметр Endianness формата : Big
    Идентификатор кодека : A_AC3
    Продолжительность : 2 ч. 7 м.
    Вид битрейта : Постоянный
    Битрейт : 448 Кбит/сек
    Каналы : 6 каналов
    Расположение каналов : Front: L C R, Side: L R, LFE
    Частота : 48,0 КГц
    Частота кадров : 31,250 кадров/сек (1536 spf)
    Метод сжатия : С потерями
    Размер потока : 407 Мбайт (13%)
    Язык : English
    Default : Нет
    Forced : Нет

    Текст
    Идентификатор : 4
    Формат : UTF-8
    Идентификатор кодека : S_TEXT/UTF8
    Идентификатор кодека/Информация : UTF-8 Plain Text
    Заголовок : Full
    Язык : English
    Default : Нет
    Forced : Нет

    Меню
    00:00:00.000 : en:00:00:00.000
    00:07:08.011 : en:00:07:08.011
    00:18:07.545 : en:00:18:07.545
    00:23:47.259 : en:00:23:47.259
    00:30:11.810 : en:00:30:11.810
    00:39:16.521 : en:00:39:16.521
    00:46:30.621 : en:00:46:30.621
    00:54:46.074 : en:00:54:46.074
    01:01:14.129 : en:01:01:14.129
    01:09:29.040 : en:01:09:29.040
    01:18:03.345 : en:01:18:03.345
    01:28:18.251 : en:01:28:18.251
    01:36:12.058 : en:01:36:12.058
    01:39:14.657 : en:01:39:14.657
    01:46:58.328 : en:01:46:58.328
    01:52:11.016 : en:01:52:11.016
8.8 из 10
голосов: 8
/10
/10
grab777 23-05-2016, 08:06

pchelka | 24-05-2016, 20:36 | Статус: Оффлайн

Фильм снят ОБАЛДЕННО!

batyr-gsm | 24-05-2016, 09:03 | Статус: Оффлайн

большего шлака я в жизни не видал
Информация
Посетители, находящиеся в группе Гости, не могут оставлять комментарии к данной публикации.