Панель пользователя
Регистрация

Воспользуйтесь социальными сетями для входа на https://freerutor.com

vk odnoklassniki facebook mailru yandex google
Популярное
Счетчик
Голосуй за нас
VIP на сайте
Популярное
Товары интернет магазина
загрузка...

Книга джунглей (2016) BDRip 720p | Лицензия

Книга джунглей (2016) BDRip 720p  | Лицензия
Участники торрент обмена
Сидов Пиров Скачали
27 0 2635
Характеристика
Размер Файлы
8.91 GB
Релиз группа
Поделиться раздачей
Фильмы (720,1080,Blu-Ray)
Наименование: Книга джунглей
Оригинальное наименование: The Jungle Book
Категория: фэнтези, драма, приключения,
Произведено: США
Режиссер постановщик: Джон Фавро
В главных ролях: Скарлетт Йоханссон, Идрис Эльба, Билл Мюррей, Бен Кингсли, Кристофер Уокен, Джанкарло Эспозито, Лупита Нионго Эмджей, Энтони, Нил Сетхи, Брэндон Хеншель
Краткое описание: Непримиримая борьба с опасным и внушающим страх тигром Шерханом вынуждает Маугли покинуть волчью стаю и отправиться в захватывающее путешествие. На пути мальчика ждут удивительные открытия и запоминающиеся встречи с пантерой Багирой, медведем Балу, питоном Каа и другими обитателями дремучих джунглей.
  • Видео данные: MPEG-4 AVC, 7953 Кбит/с, 1280x690
    Аудио данные: Русский (AC3, 6 ch, 640 Кбит/с), украинский (DTS, 6 ch, 1509 Кбит/с), английский (DTS, 6 ch, 1509 Кбит/с), (AC3, 2 ch, 192 Кбит/с)
    Перевод: Дублированный [Лицензия-Blu-ray CEE]
    Продолжительность: 01:45:55
    Субтитры: Русские (forced, full), английские (full, SDH)
    Релиз без Рекламы!
  • Книга джунглей (2016) BDRip 720p  | Лицензия Книга джунглей (2016) BDRip 720p  | Лицензия Книга джунглей (2016) BDRip 720p  | Лицензия
  • Общее
    Уникальный идентификатор : 216089828699242866129226443030569334126 (0xA291631E071E889182A2A12FAB96B56E)
    Полное имя : The.Jungle.Book.2016.720p.BluRay.DTS.Rus.Ukr.2xEng.HDCLUB.mkv
    Формат : Matroska
    Версия формата : Version 2
    Размер файла : 8,91 Гбайт
    Продолжительность : 1 ч. 45 м.
    Общий поток : 12,0 Мбит/сек
    Название фильма : The Jungle Book (2016) - Release for HDCLUB
    Дата кодирования : UTC 2016-08-27 09:47:14
    Программа кодирования : mkvmerge v3.4.0 ('Rapunzel') built on May 15 2010 09:38:20
    Библиотека кодирования : libebml v0.8.0 + libmatroska v0.9.0

    Видео
    Идентификатор : 1
    Формат : AVC
    Формат/Информация : Advanced Video Codec
    Профиль формата : High@L4.1
    Параметр CABAC формата : Да
    Параметр ReFrames формата : 9 кадров
    Идентификатор кодека : V_MPEG4/ISO/AVC
    Битрейт : 7953 Кбит/сек
    Ширина : 1280 пикселей
    Высота : 692 пикселя
    Соотношение сторон : 1,85:1
    Режим частоты кадров : Переменный
    Частота кадров в оригинале : 23,976 кадра/сек
    Цветовое пространство : YUV
    Субдискретизация насыщенности : 4:2:0
    Битовая глубина : 8 бит
    Тип развёртки : Прогрессивная
    Заголовок : The Jungle Book (2016) - Release for HDCLUB
    Библиотека кодирования : x264 core 148 r2705.16 d50a22e VietHD_Custom_64
    Настройки программы : cabac=1 / ref=9 / deblock=1:-3:-3 / analyse=0x3:0x133 / me=umh / subme=10 / psy=1 / fade_compensate=0.00 / psy_rd=1.09:0.00 / mixed_ref=1 / me_range=24 / chroma_me=1 / trellis=2 / 8x8dct=1 / cqm=0 / deadzone=21,11 / fast_pskip=0 / chroma_qp_offset=-2 / threads=12 / lookahead_threads=2 / sliced_threads=0 / nr=0 / decimate=0 / interlaced=0 / bluray_compat=0 / constrained_intra=0 / fgo=0 / bframes=8 / b_pyramid=2 / b_adapt=2 / b_bias=0 / direct=3 / weightb=1 / open_gop=0 / weightp=2 / keyint=250 / keyint_min=23 / scenecut=40 / intra_refresh=0 / rc_lookahead=60 / rc=crf / mbtree=0 / crf=15.8000 / qcomp=0.65 / qpmin=0:0:0 / qpmax=69:69:69 / qpstep=4 / vbv_maxrate=62500 / vbv_bufsize=78125 / crf_max=0.0 / nal_hrd=none / filler=0 / ip_ratio=1.30 / pb_ratio=1.20 / aq=3:0.70 / aq-sensitivity=10.00 / aq-factor=1.00:1.00:1.00 / aq2=0 / aq3=0 / zones=0,930,crf=14/1754,3505,crf=14.9/7604,7619,crf=14.8/18479,23842,crf=14.9/27926,30663,crf=14.9/35046,39264,crf=14.9/42372,46071,crf=14.9/46072,51878,crf=14.9/62370,69128,crf=14.9/75270,81782,crf=14.9/92681,96648,crf=14.9/97165,109717,crf=14.9/110801,134368,crf=14.9/134505,134546,crf=14.9/146749,152359,crf=25
    Язык : English
    Default : Да
    Forced : Нет
    Цветовой диапазон : Limited
    Коэффициенты матрицы : BT.709

    Аудио #1
    Идентификатор : 2
    Формат : AC-3
    Формат/Информация : Audio Coding 3
    Расширение режима : CM (complete main)
    Параметр Endianness формата : Big
    Идентификатор кодека : A_AC3
    Продолжительность : 1 ч. 45 м.
    Вид битрейта : Постоянный
    Битрейт : 640 Кбит/сек
    Каналы : 6 каналов
    Расположение каналов : Front: L C R, Side: L R, LFE
    Частота : 48,0 КГц
    Метод сжатия : С потерями
    Размер потока : 485 Мбайт (5%)
    Заголовок : AC3 5.1 @ 640 kbps - DUB, Blu-ray CEE
    Язык : Russian
    Default : Да
    Forced : Нет

    Аудио #2
    Идентификатор : 3
    Формат : DTS
    Формат/Информация : Digital Theater Systems
    Режим : 16
    Параметр Endianness формата : Big
    Идентификатор кодека : A_DTS
    Продолжительность : 1 ч. 45 м.
    Вид битрейта : Постоянный
    Битрейт : 1509 Кбит/сек
    Каналы : 6 каналов
    Расположение каналов : Front: L C R, Side: L R, LFE
    Частота : 48,0 КГц
    Битовая глубина : 24 бит
    Метод сжатия : С потерями
    Размер потока : 1,12 Гбайт (13%)
    Заголовок : DTS 5.1 @ 1536 kbps - DUB, Disney / Buena Vista
    Язык : Ukrainian
    Default : Нет
    Forced : Нет

    Аудио #3
    Идентификатор : 4
    Формат : DTS
    Формат/Информация : Digital Theater Systems
    Режим : 16
    Параметр Endianness формата : Big
    Идентификатор кодека : A_DTS
    Продолжительность : 1 ч. 45 м.
    Вид битрейта : Постоянный
    Битрейт : 1509 Кбит/сек
    Каналы : 6 каналов
    Расположение каналов : Front: L C R, Side: L R, LFE
    Частота : 48,0 КГц
    Битовая глубина : 24 бит
    Метод сжатия : С потерями
    Задержка видео : 11 мс.
    Размер потока : 1,12 Гбайт (13%)
    Заголовок : DTS 5.1 @ 1536 kbps
    Язык : English
    Default : Нет
    Forced : Нет

    Аудио #4
    Идентификатор : 5
    Формат : AC-3
    Формат/Информация : Audio Coding 3
    Расширение режима : CM (complete main)
    Параметр Endianness формата : Big
    Идентификатор кодека : A_AC3
    Продолжительность : 1 ч. 45 м.
    Вид битрейта : Постоянный
    Битрейт : 192 Кбит/сек
    Каналы : 2 канала
    Расположение каналов : Front: L R
    Частота : 48,0 КГц
    Метод сжатия : С потерями
    Размер потока : 145 Мбайт (2%)
    Заголовок : AC3 2.0 @ 192 kbps - Audio Commentary with Director Jon Favreau
    Язык : English
    Default : Нет
    Forced : Нет

    Текст #1
    Идентификатор : 6
    Формат : UTF-8
    Идентификатор кодека : S_TEXT/UTF8
    Идентификатор кодека/Информация : UTF-8 Plain Text
    Заголовок : Forced, iTunes
    Язык : Russian
    Default : Да
    Forced : Нет

    Текст #2
    Идентификатор : 7
    Формат : UTF-8
    Идентификатор кодека : S_TEXT/UTF8
    Идентификатор кодека/Информация : UTF-8 Plain Text
    Заголовок : iTunes
    Язык : Russian
    Default : Нет
    Forced : Нет

    Текст #3
    Идентификатор : 8
    Формат : UTF-8
    Идентификатор кодека : S_TEXT/UTF8
    Идентификатор кодека/Информация : UTF-8 Plain Text
    Заголовок : iTunes
    Язык : English
    Default : Нет
    Forced : Нет

    Текст #4
    Идентификатор : 9
    Формат : UTF-8
    Идентификатор кодека : S_TEXT/UTF8
    Идентификатор кодека/Информация : UTF-8 Plain Text
    Язык : English
    Default : Нет
    Forced : Нет

    Текст #5
    Идентификатор : 10
    Формат : UTF-8
    Идентификатор кодека : S_TEXT/UTF8
    Идентификатор кодека/Информация : UTF-8 Plain Text
    Заголовок : SDH
    Язык : English
    Default : Нет
    Forced : Нет

    Текст #6
    Идентификатор : 11
    Формат : UTF-8
    Идентификатор кодека : S_TEXT/UTF8
    Идентификатор кодека/Информация : UTF-8 Plain Text
    Заголовок : Commentary
    Язык : English
    Default : Нет
    Forced : Нет

    Меню
    00:00:00.000 : en:Opening Title
    00:00:48.214 : en:Running with Wolves
    00:05:15.315 : en:Water Truce
    00:09:02.458 : en:A Warning
    00:12:42.178 : en:Mowgli Leaves the Pack
    00:16:34.451 : en:Shere Khan Attacks
    00:21:20.028 : en:Akela's Plea
    00:27:15.133 : en:Kaa
    00:35:04.143 : en:Baloo's Honey
    00:43:21.724 : en:The Mowgli Way
    00:48:05.132 : en:"The Bare Necessities"
    00:53:29.247 : en:Saving the Elephant
    00:58:03.271 : en:Monkey Abduction
    01:05:46.442 : en:"I Wan'na Be Like You"
    01:10:35.522 : en:Monkey Escape
    01:17:01.325 : en:The Red Flower
    01:20:48.927 : en:The Law of the Jungle
    01:24:46.539 : en:The Final Battle
    01:30:32.969 : en:Celebration
    01:35:53.205 : en:End Credits
8.6 из 10
голосов: 17
/10
/10
darkmagikan 27-08-2016, 15:19
Информация
Посетители, находящиеся в группе Гости, не могут оставлять комментарии к данной публикации.