Панель пользователя
Регистрация

Воспользуйтесь социальными сетями для входа на https://freerutor.com

vk odnoklassniki facebook mailru yandex google
Популярное
Счетчик
Голосуй за нас
VIP на сайте
Популярное
Товары интернет магазина
загрузка...

Гордость и предубеждение и зомби / Pride and Prejudice and Zombies (2016) BDRip-AVC | Лицензия

Гордость и предубеждение и зомби / Pride and Prejudice and Zombies (2016) BDRip-AVC | Лицензия
Участники торрент обмена
Сидов Пиров Скачали
4 0 1362
Характеристика
Размер Файлы
2.03 GB
Релиз группа
Поделиться раздачей
Фильмы (AVC)
Наименование: Гордость и предубеждение и зомби
Оригинальное наименование: Pride and Prejudice and Zombies
Категория: ужасы, боевик, мелодрама
Произведено: США, Великобритания
Режиссер постановщик: Бёрр Стирс
В главных ролях: Лили Джеймс, Сэм Райли, Белла Хиткот, Элли Бамбер, Милли Брэйди, Сьюки Уотерхаус, Дуглас Бут, Сэлли Филлипс, Чарльз Дэнс, Джек Хьюстон, Лина Хиди, Мэтт Смит
Краткое описание: Англия, XIX век. Элизабет Беннет и её сестры вынуждены противостоять заполонившим Англию ходячим мертвецам, а так же девушки сталкиваются с давлением необходимости найти себе мужей.
  • Видео данные: MPEG-4 AVC, 1723 Кбит/с, 1024x426
    Аудио данные: Русский (AC3, 6 ch, 448 Кбит/с), английский (АС3, 6 ch, 448 Кбит/с)
    Перевод: Дубляж - [Лицензия]
    Продолжительность: 01:49:00
    Субтитры: английские (full), английские (SDH)
  • Гордость и предубеждение и зомби / Pride and Prejudice and Zombies (2016) BDRip-AVC | Лицензия Гордость и предубеждение и зомби / Pride and Prejudice and Zombies (2016) BDRip-AVC | Лицензия Гордость и предубеждение и зомби / Pride and Prejudice and Zombies (2016) BDRip-AVC | Лицензия
  • General
    Unique ID : 248056253644194785678991819617399136144 (0xBA9DE58CBA563F0A96AC69B9C5CEDF90)
    Название : D:\download\Pride.and.Prejudice.and.Zombies.2016.BDRip-AVC by schultz R.G.Resident.mkv
    Формат : Matroska
    Формат version : Version 4 / Version 2
    Размер файла : 2.03 GiB
    Длительность : 1h 49mn
    Общий Битрейт : 2 672 Kbps
    Encoded date : UTC 2016-05-20 22:33:49
    Создано приложением : mkvmerge v8.9.0 ('Father Daughter') 64bit
    Writing library : libebml v1.3.3 + libmatroska v1.4.4
    Длительность : 01:48:14.827000000
    NUMBER_OF_FRAMES : 1487
    NUMBER_OF_BYTES : 64672
    _STATISTICS_WRITING_APP : mkvmerge v8.9.0 ('Father Daughter') 64bit
    _STATISTICS_WRITING_DATE_UTC : 2016-05-20 22:33:49
    _STATISTICS_TAGS : BPS Длительность NUMBER_OF_FRAMES NUMBER_OF_BYTES

    Video
    ID : 1
    Формат : AVC
    Формат/Info : Advanced Video Кодек
    Формат profile : High@L4.1
    Формат настройки, CABAC : Yes
    Формат настройки, ReFrames : 12 frames
    Кодек ID : V_MPEG4/ISO/AVC
    Длительность : 1h 49mn
    Битрейт : 1 723 Kbps
    Nominal Битрейт : 1 811 Kbps
    Width : 1 024 пикселей
    Высота : 426 пикселей
    Соотношение кадра : 2.40:1
    Частота кадров : 23.976 fps
    Цветопередача : YUV
    Chroma subsampling : 4:2:0
    Разрядность : 8 bits
    Тип сканирования : Progressive
    Bits/(Pixel*Frame) : 0.165
    Размер потока : 1.31 GiB (64%)
    Writing library : x264 core 146 r2538 121396c
    Encoding настройки : cabac=1 / ref=12 / deblock=1:-3:-3 / analyse=0x3:0x113 / me=umh / subme=11 / psy=1 / psy_rd=1.00:0.00 / mixed_ref=1 / me_range=48 / chroma_me=1 / trellis=2 / 8x8dct=1 / cqm=0 / deadzone=21,11 / fast_pskip=0 / chroma_qp_offset=-2 / threads=12 / lookahead_threads=3 / sliced_threads=0 / nr=0 / decimate=0 / interlaced=0 / bluray_compat=0 / constrained_intra=0 / bframes=13 / b_pyramid=2 / b_adapt=2 / b_bias=0 / direct=3 / weightb=1 / open_gop=0 / weightp=2 / keyint=240 / keyint_min=23 / scenecut=40 / intra_refresh=0 / rc_lookahead=40 / rc=2pass / mbtree=1 / bitrate=1811 / ratetol=1.0 / qcomp=0.60 / qpmin=0 / qpmax=69 / qpstep=4 / cplxblur=20.0 / qblur=0.5 / vbv_maxrate=14000 / vbv_bufsize=14000 / nal_hrd=none / filler=0 / ip_ratio=1.40 / aq=1:1.00
    Язык : English
    Default : Yes
    Forced : No
    Длительность : 01:47:32.457000000
    NUMBER_OF_FRAMES : 154704
    NUMBER_OF_BYTES : 1460444932
    _STATISTICS_WRITING_APP : mkvmerge v8.9.0 ('Father Daughter') 64bit
    _STATISTICS_WRITING_DATE_UTC : 2016-05-20 22:33:49
    _STATISTICS_TAGS : BPS Длительность NUMBER_OF_FRAMES NUMBER_OF_BYTES

    Audio #1
    ID : 2
    Формат : AC-3
    Формат/Info : Audio Coding 3
    Расширение режима : CM (complete main)
    Кодек ID : A_AC3
    Длительность : 1h 49mn
    Битрейт mode : Constant
    Битрейт : 448 Kbps
    Channel(s) : 6 каналов
    Channel positions : Front: L C R, Side: L R, LFE
    Частота : 48.0 KHz
    Разрядность : 16 bits
    Режим сжатия : Lossy
    Размер потока : 349 MiB (17%)
    Язык : Russian
    Default : Yes
    Forced : No

    Audio #2
    ID : 3
    Формат : AC-3
    Формат/Info : Audio Coding 3
    Расширение режима : CM (complete main)
    Кодек ID : A_AC3
    Длительность : 1h 49mn
    Битрейт mode : Constant
    Битрейт : 448 Kbps
    Channel(s) : 6 каналов
    Channel positions : Front: L C R, Side: L R, LFE
    Частота : 48.0 KHz
    Разрядность : 16 bits
    Режим сжатия : Lossy
    Размер потока : 349 MiB (17%)
    Язык : English
    Default : No
    Forced : No

    Text #1
    ID : 4
    Формат : UTF-8
    Кодек ID : S_TEXT/UTF8
    Кодек ID/Info : UTF-8 Plain Text
    Title : full
    Язык : English
    Default : Yes
    Forced : No

    Text #2
    ID : 5
    Формат : UTF-8
    Кодек ID : S_TEXT/UTF8
    Кодек ID/Info : UTF-8 Plain Text
    Title : SDH
    Язык : English
    Default : No
    Forced : No
10.0 из 10
голосов: 3
/10
/10
schultz 21-05-2016, 02:14
Информация
Посетители, находящиеся в группе Гости, не могут оставлять комментарии к данной публикации.