Панель пользователя
Регистрация

Воспользуйтесь социальными сетями для входа на https://freerutor.com

vk odnoklassniki facebook mailru yandex google
Популярное
Счетчик
Голосуй за нас
VIP на сайте
Популярное
Товары интернет магазина
загрузка...

Колония Дигнидад / Colonia (2015) WEB-DLRip-AVC | Лицензия

Колония Дигнидад / Colonia (2015) WEB-DLRip-AVC | Лицензия
Участники торрент обмена
Сидов Пиров Скачали
4 0 693
Характеристика
Размер Файлы
1.46 GB
Релиз группа
Поделиться раздачей
Фильмы (AVC)
Наименование: Колония Дигнидад
Оригинальное наименование: Colonia
Категория: Триллер, драма, мелодрама, история
Произведено: Германия, Люксембург, Франция / Fred Films, Iris Productions
Режиссер постановщик: Флориан Галленбергер
В главных ролях: Эмма Уотсон, Даниэль Брюль, Микаэл Нюквист, Риченда Кэри, Вики Крипс, Джинн Вернер, Джулиан Овенден, Август Цирнер, Мартин Вуттке, Николас Барсофф
Краткое описание: Немецкий журналист Даниэль похищен в Чили тайной полицией и после немыслимых пыток отправлен в колонию «Дигнидад» — огромное поселение, выдающее себя за благотворительную коммуну, а на самом деле гнездо нацистов — беглецов из Третьего рейха. Колонию возглавляет бывший офицер вермахта, бесноватый проповедник Пауль Шефер, внушающий пастве пользу умерщвления плоти и бесплатного труда от заката до рассвета. В «Дигнидад» легко попасть, но обратной дороги нет. Здесь Даниэлю предстоит превратиться в раба и «материал» для бесчеловечных экспериментов. Но подвиги во имя любви совершают не только мужчины. Девушка Даниэля, отважная стюардесса Лена, решает спасти его. В одиночку. Ради любимого она готова на всё и даже больше. Добровольно, под видом послушницы, Лена отправляется в это страшное место…
  • Видео данные: MPEG-4 AVC, 1516 Кбит/с, 1024x426
    Аудио данные: AC3, 6 ch, 384 Кбит/с
    Перевод: Дублированное [iTunes]
    Продолжительность: 01:49:58
  • Колония Дигнидад / Colonia (2015) WEB-DLRip-AVC | Лицензия Колония Дигнидад / Colonia (2015) WEB-DLRip-AVC | Лицензия Колония Дигнидад / Colonia (2015) WEB-DLRip-AVC | Лицензия
  • General
    Unique ID : 254635898295302257348424101550813122005 (0xBF911713B22A93A4ACDB3FDEDD788DD5)
    Complete name : C:GamesColonia.2015.WEB-DLRip-AVC.by.White Smoke.R.G.Resident.mkv
    Format : Matroska
    Format version : Version 2
    File size : 1.46 GiB
    Duration : 1h 49mn
    Overall bit rate : 1 900 Kbps
    Encoded date : UTC 2016-05-11 13:24:21
    Writing application : mkvmerge v7.8.0 ('River Man') 32bit built on Apr 3 2015 12:11:22
    Writing library : libebml v1.3.1 + libmatroska v1.4.2

    Video
    ID : 1
    Format : AVC
    Format/Info : Advanced Video Codec
    Format profile : High@L4.1
    Format settings, CABAC : Yes
    Format settings, ReFrames : 12 frames
    Codec ID : V_MPEG4/ISO/AVC
    Duration : 1h 49mn
    Bit rate : 1 516 Kbps
    Width : 1 024 pixels
    Height : 426 pixels
    Display aspect ratio : 2.40:1
    Frame rate : 23.976 fps
    Color space : YUV
    Chroma subsampling : 4:2:0
    Bit depth : 8 bits
    Scan type : Progressive
    Bits/(Pixel*Frame) : 0.145
    Stream size : 1.14 GiB (78%)
    Writing library : x264 core 146 r2538 121396c
    Encoding settings : cabac=1 / ref=12 / deblock=1:-2:-2 / analyse=0x3:0x113 / me=umh / subme=9 / psy=1 / psy_rd=1.00:0.00 / mixed_ref=1 / me_range=32 / chroma_me=1 / trellis=2 / 8x8dct=1 / cqm=0 / deadzone=21,11 / fast_pskip=0 / chroma_qp_offset=-2 / threads=6 / lookahead_threads=1 / sliced_threads=0 / nr=0 / decimate=0 / interlaced=0 / bluray_compat=0 / constrained_intra=0 / bframes=10 / b_pyramid=2 / b_adapt=2 / b_bias=0 / direct=3 / weightb=1 / open_gop=0 / weightp=2 / keyint=250 / keyint_min=23 / scenecut=40 / intra_refresh=0 / rc_lookahead=60 / rc=2pass / mbtree=0 / bitrate=1516 / ratetol=1.0 / qcomp=0.60 / qpmin=0 / qpmax=69 / qpstep=4 / cplxblur=20.0 / qblur=0.5 / vbv_maxrate=14000 / vbv_bufsize=14000 / nal_hrd=none / filler=0 / ip_ratio=1.40 / pb_ratio=1.30 / aq=1:0.80
    Default : Yes
    Forced : No

    Audio
    ID : 2
    Format : AC-3
    Format/Info : Audio Coding 3
    Mode extension : CM (complete main)
    Codec ID : A_AC3
    Duration : 1h 49mn
    Bit rate mode : Constant
    Bit rate : 384 Kbps
    Channel(s) : 6 channels
    Channel positions : Front: L C R, Side: L R, LFE
    Sampling rate : 48.0 KHz
    Bit depth : 16 bits
    Compression mode : Lossy
    Stream size : 302 MiB (20%)
    Default : Yes
    Forced : No
8.0 из 10
голосов: 4
/10
/10
grab777 15-05-2016, 21:26
Информация
Посетители, находящиеся в группе Гости, не могут оставлять комментарии к данной публикации.