Панель пользователя
Регистрация

Воспользуйтесь социальными сетями для входа на https://freerutor.com

vk odnoklassniki facebook mailru yandex google
Популярное
Счетчик
Голосуй за нас
VIP на сайте
Популярное
Товары интернет магазина
загрузка...

Следствие вели - Стеклянные глаза (эфир от 14.05.2016) HDTV 1080i

Следствие вели - Стеклянные глаза (эфир от 14.05.2016) HDTV 1080i
Участники торрент обмена
Сидов Пиров Скачали
0 0 37
Характеристика
Размер Файлы
2.44 GB
Релиз группа
Поделиться раздачей
Документальный
Оригинальное наименование: Следствие вели... с Леонидом Каневским
Категория: Документальный, детектив, криминал, расследование
Произведено: Россия / НТВ
Режиссер постановщик: Игорь Ромащенко
Ведущий: Леонид Каневский
Краткое описание: Ивановская область. В маленьком городке Южа уже десять лет живет маньяк. В 1978 году он убил женщину, а одиннадцать лет спустя на том же самом месте расправился с девочкой. Следователь Тарасова знает, кто убийца. Но вывести хитрого маньяка на чистую воду до сих пор не удавалось никому…
  • Видео данные: MPEG-TS, 7862 Кбит/с, 1920x1080
    Аудио данные: Русский (MP2, 2 ch, 192 Кбит/с)
    Перевод: Оригинал (Русский)
    Продолжительность: 00:41:09
  • Следствие вели - Стеклянные глаза (эфир от 14.05.2016) HDTV 1080i Следствие вели - Стеклянные глаза (эфир от 14.05.2016) HDTV 1080i Следствие вели - Стеклянные глаза (эфир от 14.05.2016) HDTV 1080i
  • Общее
    Идентификатор : 1 (0x1)
    Полное имя : F:\Фильмы торренты\Sledstvie.veli.(2016.05.14).2016.HDTV.(1080i).Nikolspup.ts
    Формат : MPEG-TS
    Размер файла : 2,44 Гбайт
    Продолжительность : 41 м.
    Режим общего битрейта : Переменный
    Общий поток : 8474 Кбит/сек

    Видео
    Идентификатор : 901 (0x385)
    Идентификатор меню : 1116 (0x45C)
    Формат : AVC
    Формат/Информация : Advanced Video Codec
    Профиль формата : Main@L4
    Параметр CABAC формата : Да
    Параметр ReFrames формата : 2 кадра
    Параметр GOP формата : M=3, N=30
    Идентификатор кодека : 27
    Продолжительность : 41 м.
    Битрейт : 7862 Кбит/сек
    Ширина : 1920 пикселей
    Высота : 1080 пикселей
    Соотношение сторон : 16:9
    Частота кадров : 25,000 кадров/сек
    Цветовое пространство : YUV
    Субдискретизация насыщенности : 4:2:0
    Битовая глубина : 8 бит
    Тип развёртки : MBAFF
    Метод сохранения типа развёртки : Чередующиеся поля
    Порядок развёртки : Верхнее поле первое
    Бит/(Пиксели*Кадры) : 0.152
    Размер потока : 2,26 Гбайт (93%)
    Цветовой диапазон : Limited
    Основные цвета : BT.709
    Характеристики трансфера : BT.709
    Коэффициенты матрицы : BT.709

    Аудио
    Идентификатор : 902 (0x386)
    Идентификатор меню : 1116 (0x45C)
    Формат : MPEG Audio
    Версия формата : Version 1
    Профиль формата : Layer 2
    Идентификатор кодека : 3
    Продолжительность : 41 м.
    Вид битрейта : Постоянный
    Битрейт : 192 Кбит/сек
    Каналы : 2 канала
    Частота : 48,0 КГц
    Метод сжатия : С потерями
    Размер потока : 56,5 Мбайт (2%)
    Язык : Russian
5.0 из 10
голосов: 1
/10
/10
grab777 14-05-2016, 22:39
Информация
Посетители, находящиеся в группе Гости, не могут оставлять комментарии к данной публикации.