Панель пользователя
Регистрация

Воспользуйтесь социальными сетями для входа на https://freerutor.com

vk odnoklassniki facebook mailru yandex google
Популярное
Счетчик
Голосуй за нас
VIP на сайте
Популярное
Товары интернет магазина
загрузка...

Дэдпул / Deadpool (2016) BDRip-AVC | Лицензия

Дэдпул / Deadpool (2016) BDRip-AVC | Лицензия
Участники торрент обмена
Сидов Пиров Скачали
29 1 3939
Характеристика
Размер Файлы
3.13 GB
Поделиться раздачей
Фильмы (AVC)
Наименование: Дэдпул
Оригинальное наименование: Deadpool
Категория: Фантастика, боевик, комедия, приключения
Произведено: США, Канада / 20th Century Fox Film Corporation, Marvel Entertainment
Режиссер постановщик: Тим Миллер
В главных ролях: Райан Рейнольдс, Морена Баккарин, Джина Карано, ТиДжей Миллер, Эд Скрейн, Рэйчел Шин, Брианна Хилдебранд, Андре Трикоте, Тэйлор Хиксон, Джед Риис
Краткое описание: Уэйд Уилсон — наёмник. Будучи побочным продуктом программы вооружённых сил под названием «Оружие X», Уилсон приобрёл невероятную силу, проворство и способность к исцелению. Но страшной ценой: его клеточная структура постоянно меняется, а здравомыслие сомнительно. Всё, чего Уилсон хочет, — это держаться на плаву в социальной выгребной яме. Но течение в ней слишком быстрое.
  • Видео данные: MPEG-4 AVC, 2350 Кбит/с, 1024x432
    Аудио данные: Русский, украинский, английский (AC3, 6 ch, 448 Кбит/с)
    Перевод: Дублированный [Лицензия]
    Субтитры: Русские, английские, украинские
    Продолжительность: 01:48:41
  • Дэдпул / Deadpool (2016) BDRip-AVC | Лицензия Дэдпул / Deadpool (2016) BDRip-AVC | Лицензия Дэдпул / Deadpool (2016) BDRip-AVC | Лицензия
  • Общее
    Уникальный идентификатор : 175811085959896763749585629221444825793 (0x8443FBC6B1006898B69DD24DB0C2B2C1)
    Полное имя : Deadpool.2016.BGRip.AVC.mkv
    Формат : Matroska
    Версия формата : Version 4 / Version 2
    Размер файла : 3,13 Гбайт
    Продолжительность : 1 ч. 48 м.
    Общий поток : 4145 Кбит/сек
    Дата кодирования : UTC 2016-05-08 07:36:01
    Программа кодирования : mkvmerge v9.1.0 ('Little Earthquakes') 64bit
    Библиотека кодирования : libebml v1.3.3 + libmatroska v1.4.4
    Attachements : cover.jpeg
    DURATION : 01:47:39.286000000
    NUMBER_OF_FRAMES : 1852
    NUMBER_OF_BYTES : 52223
    _STATISTICS_WRITING_APP : mkvmerge v9.1.0 ('Little Earthquakes') 64bit
    _STATISTICS_WRITING_DATE_UTC : 2016-05-08 07:36:01
    _STATISTICS_TAGS : BPS DURATION NUMBER_OF_FRAMES NUMBER_OF_BYTES

    Видео
    Идентификатор : 1
    Формат : AVC
    Формат/Информация : Advanced Video Codec
    Профиль формата : High@L4.1
    Параметр CABAC формата : Да
    Параметр ReFrames формата : 12 кадров
    Идентификатор кодека : V_MPEG4/ISO/AVC
    Продолжительность : 1 ч. 48 м.
    Битрейт : 2350 Кбит/сек
    Ширина : 1024 пикселя
    Высота : 432 пикселя
    Соотношение сторон : 2,40:1
    Режим частоты кадров : Постоянный
    Частота кадров : 23,976 кадра/сек
    Цветовое пространство : YUV
    Субдискретизация насыщенности : 4:2:0
    Битовая глубина : 8 бит
    Тип развёртки : Прогрессивная
    Бит/(Пиксели*Кадры) : 0.222
    Размер потока : 1,71 Гбайт (55%)
    Библиотека кодирования : x264 core 148 r2638 7599210
    Настройки программы : cabac=1 / ref=12 / deblock=1:-3:-3 / analyse=0x3:0x133 / me=umh / subme=11 / psy=1 / psy_rd=1.05:0.15 / mixed_ref=1 / me_range=48 / chroma_me=1 / trellis=2 / 8x8dct=1 / cqm=2 / deadzone=21,11 / fast_pskip=1 / chroma_qp_offset=-3 / threads=12 / lookahead_threads=3 / sliced_threads=0 / nr=0 / decimate=0 / interlaced=0 / bluray_compat=0 / constrained_intra=0 / bframes=12 / b_pyramid=2 / b_adapt=2 / b_bias=0 / direct=3 / weightb=1 / open_gop=0 / weightp=2 / keyint=240 / keyint_min=23 / scenecut=0 / intra_refresh=0 / rc=2pass / mbtree=0 / bitrate=2350 / ratetol=1.0 / qcomp=0.70 / qpmin=0 / qpmax=69 / qpstep=4 / cplxblur=20.0 / qblur=0.5 / ip_ratio=1.40 / pb_ratio=1.30 / aq=2:0.80
    Default : Да
    Forced : Нет
    Цветовой диапазон : Limited
    Основные цвета : BT.709
    Характеристики трансфера : BT.709
    Коэффициенты матрицы : BT.709

    Аудио #1
    Идентификатор : 2
    Формат : AC-3
    Формат/Информация : Audio Coding 3
    Расширение режима : CM (complete main)
    Параметр Endianness формата : Big
    Идентификатор кодека : A_AC3
    Продолжительность : 1 ч. 48 м.
    Вид битрейта : Постоянный
    Битрейт : 448 Кбит/сек
    Каналы : 6 каналов
    Расположение каналов : Front: L C R, Side: L R, LFE
    Частота : 48,0 КГц
    Метод сжатия : С потерями
    Размер потока : 346 Мбайт (11%)
    Заголовок : AC3 5.1 @ 448 kbps - DUB, Blu-ray CEE
    Язык : Russian
    Default : Да
    Forced : Нет

    Аудио #2
    Идентификатор : 3
    Формат : AC-3
    Формат/Информация : Audio Coding 3
    Расширение режима : CM (complete main)
    Параметр Endianness формата : Big
    Идентификатор кодека : A_AC3
    Продолжительность : 1 ч. 48 м.
    Вид битрейта : Постоянный
    Битрейт : 448 Кбит/сек
    Каналы : 6 каналов
    Расположение каналов : Front: L C R, Side: L R, LFE
    Частота : 48,0 КГц
    Метод сжатия : С потерями
    Размер потока : 346 Мбайт (11%)
    Заголовок : Гаевский
    Язык : Russian
    Default : Нет
    Forced : Нет

    Аудио #3
    Идентификатор : 4
    Формат : AC-3
    Формат/Информация : Audio Coding 3
    Расширение режима : CM (complete main)
    Параметр Endianness формата : Big
    Идентификатор кодека : A_AC3
    Продолжительность : 1 ч. 48 м.
    Вид битрейта : Постоянный
    Битрейт : 448 Кбит/сек
    Каналы : 6 каналов
    Расположение каналов : Front: L C R, Side: L R, LFE
    Частота : 48,0 КГц
    Метод сжатия : С потерями
    Размер потока : 346 Мбайт (11%)
    Заголовок : AC3 5.1 @ 448 kbps - DUB, Blu-ray CEE
    Язык : Ukrainian
    Default : Нет
    Forced : Нет

    Аудио #4
    Идентификатор : 5
    Формат : AC-3
    Формат/Информация : Audio Coding 3
    Расширение режима : CM (complete main)
    Параметр Endianness формата : Big
    Идентификатор кодека : A_AC3
    Продолжительность : 1 ч. 48 м.
    Вид битрейта : Постоянный
    Битрейт : 448 Кбит/сек
    Каналы : 6 каналов
    Расположение каналов : Front: L C R, Side: L R, LFE
    Частота : 48,0 КГц
    Метод сжатия : С потерями
    Размер потока : 346 Мбайт (11%)
    Язык : English
    Default : Нет
    Forced : Нет

    Текст #1
    Идентификатор : 6
    Формат : UTF-8
    Идентификатор кодека : S_TEXT/UTF8
    Идентификатор кодека/Информация : UTF-8 Plain Text
    Заголовок : forced
    Язык : Russian
    Default : Да
    Forced : Нет

    Текст #2
    Идентификатор : 7
    Формат : UTF-8
    Идентификатор кодека : S_TEXT/UTF8
    Идентификатор кодека/Информация : UTF-8 Plain Text
    Язык : Russian
    Default : Нет
    Forced : Нет

    Текст #3
    Идентификатор : 8
    Формат : UTF-8
    Идентификатор кодека : S_TEXT/UTF8
    Идентификатор кодека/Информация : UTF-8 Plain Text
    Язык : English
    Default : Нет
    Forced : Нет

    Текст #4
    Идентификатор : 9
    Формат : UTF-8
    Идентификатор кодека : S_TEXT/UTF8
    Идентификатор кодека/Информация : UTF-8 Plain Text
    Заголовок : SDH
    Язык : English
    Default : Нет
    Forced : Нет

    Текст #5
    Идентификатор : 10
    Формат : UTF-8
    Идентификатор кодека : S_TEXT/UTF8
    Идентификатор кодека/Информация : UTF-8 Plain Text
    Заголовок : forced
    Язык : Ukrainian
    Default : Нет
    Forced : Нет

    Текст #6
    Идентификатор : 11
    Формат : UTF-8
    Идентификатор кодека : S_TEXT/UTF8
    Идентификатор кодека/Информация : UTF-8 Plain Text
    Язык : Ukrainian
    Default : Нет
    Forced : Нет

    Текст #7
    Идентификатор : 12
    Формат : UTF-8
    Идентификатор кодека : S_TEXT/UTF8
    Идентификатор кодека/Информация : UTF-8 Plain Text
    Заголовок : iTunes
    Язык : English
    Default : Нет
    Forced : Нет

    Текст #8
    Идентификатор : 13
    Формат : UTF-8
    Идентификатор кодека : S_TEXT/UTF8
    Идентификатор кодека/Информация : UTF-8 Plain Text
    Заголовок : SDH
    Язык : English
    Default : Нет
    Forced : Нет

    Меню
    00:00:00.000 : en:Chapter 1
    00:03:04.726 : en:Chapter 2
    00:05:53.019 : en:Chapter 3
    00:09:30.820 : en:Chapter 4
    00:13:19.090 : en:Chapter 5
    00:16:48.716 : en:Chapter 6
    00:20:12.545 : en:Chapter 7
    00:22:06.408 : en:Chapter 8
    00:27:09.628 : en:Chapter 9
    00:31:58.959 : en:Chapter 10
    00:36:51.709 : en:Chapter 11
    00:41:06.172 : en:Chapter 12
    00:44:45.766 : en:Chapter 13
    00:46:56.605 : en:Chapter 14
    00:50:10.966 : en:Chapter 15
    00:53:18.028 : en:Chapter 16
    00:55:33.038 : en:Chapter 17
    00:59:07.753 : en:Chapter 18
    01:03:05.240 : en:Chapter 19
    01:07:06.439 : en:Chapter 20
    01:09:15.568 : en:Chapter 21
    01:12:29.720 : en:Chapter 22
    01:16:46.393 : en:Chapter 23
    01:20:43.714 : en:Chapter 24
    01:25:53.398 : en:Chapter 25
    01:31:03.792 : en:Chapter 26
    01:34:46.973 : en:Chapter 27
    01:39:52.737 : en:Chapter 28
10.0 из 10
голосов: 2
/10
/10
grab777 14-05-2016, 12:52
Информация
Посетители, находящиеся в группе Гости, не могут оставлять комментарии к данной публикации.