Панель пользователя
Регистрация

Воспользуйтесь социальными сетями для входа на https://freerutor.com

vk odnoklassniki facebook mailru yandex google
Популярное
Счетчик
Голосуй за нас
VIP на сайте
Популярное
Товары интернет магазина
загрузка...

Как поднять миллион. Исповедь Z@drota (2014) WEB-DLRip-AVC

Как поднять миллион. Исповедь Z@drota (2014) WEB-DLRip-AVC
Участники торрент обмена
Сидов Пиров Скачали
1 0 512
Характеристика
Размер Файлы
1.40 GB
Релиз группа
Поделиться раздачей
Фильмы (AVC)
Наименование: Как поднять миллион. Исповедь Z@drota
Категория: Драма
Произведено: Россия / Марс Медиа Энтертейнмент
Режиссер постановщик: Клим Шипенко
В главных ролях: Виктор Грудев, Дмитрий Калязин, Соня Карпунина, Анастасия Акатова, Николай Амосов, Александр Самойленко, Лидия Байрашевская, Михаил Бабичев, Любовь Толкалина, Михаил Довженко
Краткое описание: Женя живет в маленьком провинциальном городке. Он просиживает за компьютерами сутками, не отвлекаясь на еду и сон. Однажды Женя выясняет: на виртуальной реальности можно неплохо заработать. Начав с порносайтов, юноша вскоре получает свои первые деньги. Это в корне меняет его жизнь: больше он — не школьный изгой. Вчерашние недруги здороваются первыми, а самые красивые девочки ищут с ним встреч. Развивая свой бизнес, Женя в итоге оказывается перед выбором: принять законы коррумпированного мира и стать своим в далекой от идеала реальности, или пойти наперерез могущественным структурам, поставив под удар себя и своих близких?
  • Видео данные: MPEG-4 AVC, 2042 Кбит/с, 1024x428
    Аудио данные: AC3, 2 ch, 192 Кбит/с
    Перевод: Оригинал (Русский)
    Продолжительность: 01:29:23
  • Как поднять миллион. Исповедь Z@drota (2014) WEB-DLRip-AVC Как поднять миллион. Исповедь Z@drota (2014) WEB-DLRip-AVC Как поднять миллион. Исповедь Z@drota (2014) WEB-DLRip-AVC
  • Общее
    Уникальный идентификатор : 179369017272535327389801210950125466588 (0x86F1375558F25F9B9B3FD35428B5B3DC)
    Полное имя : D:ЗагрузкиIspoved.Z@drota.2014.x264.WEB-DLRip.AVC.ExKinoRay.mkv
    Формат : Matroska
    Версия формата : Version 2
    Размер файла : 1,40 Гбайт
    Продолжительность : 1 ч. 29 м.
    Общий поток : 2235 Кбит/сек
    Название фильма : Как поднять миллион. Исповедь Z@drota.2014.Rip by: ollan
    Дата кодирования : UTC 2016-05-13 17:22:25
    Программа кодирования : mkvmerge v5.6.0 ('Kenya Kane') built on May 27 2012 16:44:04
    Библиотека кодирования : libebml v1.2.3 + libmatroska v1.3.0
    Attachements : Cover - Kak.Podnajt.Million.png

    Видео
    Идентификатор : 1
    Формат : AVC
    Формат/Информация : Advanced Video Codec
    Профиль формата : High@L4.1
    Параметр CABAC формата : Да
    Параметр ReFrames формата : 12 кадров
    Идентификатор кодека : V_MPEG4/ISO/AVC
    Продолжительность : 1 ч. 29 м.
    Битрейт : 2042 Кбит/сек
    Ширина : 1024 пикселя
    Высота : 428 пикселей
    Соотношение сторон : 2,40:1
    Режим частоты кадров : Постоянный
    Частота кадров : 25,000 кадров/сек
    Цветовое пространство : YUV
    Субдискретизация насыщенности : 4:2:0
    Битовая глубина : 8 бит
    Тип развёртки : Прогрессивная
    Бит/(Пиксели*Кадры) : 0.186
    Размер потока : 1,25 Гбайт (89%)
    Библиотека кодирования : x264 core 146 r2538 121396c
    Настройки программы : cabac=1 / ref=12 / deblock=1:-3:-3 / analyse=0x3:0x133 / me=umh / subme=11 / psy=1 / psy_rd=1.00:0.05 / mixed_ref=1 / me_range=48 / chroma_me=1 / trellis=2 / 8x8dct=1 / cqm=0 / deadzone=21,11 / fast_pskip=0 / chroma_qp_offset=-3 / threads=12 / lookahead_threads=2 / sliced_threads=0 / nr=0 / decimate=0 / interlaced=0 / bluray_compat=0 / constrained_intra=0 / bframes=9 / b_pyramid=2 / b_adapt=2 / b_bias=0 / direct=3 / weightb=1 / open_gop=0 / weightp=2 / keyint=250 / keyint_min=25 / scenecut=40 / intra_refresh=0 / rc_lookahead=40 / rc=2pass / mbtree=0 / bitrate=2042 / ratetol=1.0 / qcomp=0.60 / qpmin=0 / qpmax=69 / qpstep=4 / cplxblur=20.0 / qblur=0.5 / vbv_maxrate=50000 / vbv_bufsize=62500 / nal_hrd=none / filler=0 / ip_ratio=1.40 / pb_ratio=1.30 / aq=1:1.00
    Язык : Russian
    Default : Да
    Forced : Нет

    Аудио
    Идентификатор : 2
    Формат : AC-3
    Формат/Информация : Audio Coding 3
    Расширение режима : CM (complete main)
    Параметр Endianness формата : Big
    Идентификатор кодека : A_AC3
    Продолжительность : 1 ч. 29 м.
    Вид битрейта : Постоянный
    Битрейт : 192 Кбит/сек
    Каналы : 2 канала
    Расположение каналов : Front: L R
    Частота : 48,0 КГц
    Частота кадров : 31,250 кадров/сек (1536 spf)
    Метод сжатия : С потерями
    Размер потока : 123 Мбайт (9%)
    Язык : Russian
    Default : Да
    Forced : Нет
7.0 из 10
голосов: 3
/10
/10
grab777 14-05-2016, 02:30
Информация
Посетители, находящиеся в группе Гости, не могут оставлять комментарии к данной публикации.