Панель пользователя
Регистрация

Воспользуйтесь социальными сетями для входа на https://freerutor.com

vk odnoklassniki facebook mailru yandex google
Популярное
Счетчик
Голосуй за нас
VIP на сайте
Популярное
Товары интернет магазина
загрузка...

Падение Лондона / London Has Fallen (2016) WEB-DLRip-AVC | Лицензия

Падение Лондона / London Has Fallen (2016) WEB-DLRip-AVC | Лицензия
Участники торрент обмена
Сидов Пиров Скачали
16 0 4567
Характеристика
Размер Файлы
1.47 GB
Релиз группа
Поделиться раздачей
Фильмы (AVC)
Наименование: Падение Лондона
Оригинальное наименование: London Has Fallen
Категория: Боевик, триллер, драма, криминал
Произведено: США, Великобритания, Болгария / LHF Film, Millennium Films, Nu Boyana Film Studios, Gerard Butler Alan Siegel Entertainment
Режиссер постановщик: Бабак Наджафи
В главных ролях: Джерард Батлер, Аарон Экхарт, Морган Фримен, Алон Абутбул, Валид Зуэйтер, Адель Беншериф, Мехди Дехби, Шивани Гаи, Мартин Петрушев, Оуэн Дэвис, Майкл Уилдман, Рада Митчелл, Стэйси Шэйн
Краткое описание: Действие фильма начинается в Лондоне, где премьер-министр Великобритании погибает при загадочных обстоятельствах. На похоронах безусловно присутствуют руководители западного мира. Но то, что начиналось как наиболее безопасное событие на земле, превращается в опаснейшее покушение на самых мощных мировых лидеров, что в свою очередь ставит под угрозу будущее всего мира. Только три человека сохраняют надежду на предотвращение катастрофы: президент США, его верный помощник — агент спецслужбы и английский агент МИ-6, который никому не доверяет.
  • Видео данные: MPEG-4 AVC, 1753 Кбит/с, 1024x428
    Аудио данные: AC3, 6 ch, 384 Кбит/с
    Перевод: Дублированный [iTunes]
    Продолжительность: 01:38:24
  • Падение Лондона / London Has Fallen (2016) WEB-DLRip-AVC | Лицензия Падение Лондона / London Has Fallen (2016) WEB-DLRip-AVC | Лицензия Падение Лондона / London Has Fallen (2016) WEB-DLRip-AVC | Лицензия
  • Общее
    Уникальный идентификатор : 197963242749897603440094231061181676060 (0x94EE556E04CC03AFA54C20B4204ABA1C)
    Полное имя : D:ЗагрузкиLondon.Has.Fallen.x264.WEB-DLRip.AVC.ExKinoRay.mkv
    Формат : Matroska
    Версия формата : Version 2
    Размер файла : 1,47 Гбайт
    Продолжительность : 1 ч. 38 м.
    Общий поток : 2139 Кбит/сек
    Название фильма : Падение Лондона.2016.Rip by: ollan
    Дата кодирования : UTC 2016-05-13 21:09:26
    Программа кодирования : mkvmerge v5.6.0 ('Kenya Kane') built on May 27 2012 16:44:04
    Библиотека кодирования : libebml v1.2.3 + libmatroska v1.3.0
    Attachements : Cover - Padenie.Londona.png

    Видео
    Идентификатор : 1
    Формат : AVC
    Формат/Информация : Advanced Video Codec
    Профиль формата : High@L4.1
    Параметр CABAC формата : Да
    Параметр ReFrames формата : 12 кадров
    Идентификатор кодека : V_MPEG4/ISO/AVC
    Продолжительность : 1 ч. 38 м.
    Битрейт : 1753 Кбит/сек
    Ширина : 1024 пикселя
    Высота : 428 пикселей
    Соотношение сторон : 2,40:1
    Режим частоты кадров : Постоянный
    Частота кадров : 24,000 кадра/сек
    Цветовое пространство : YUV
    Субдискретизация насыщенности : 4:2:0
    Битовая глубина : 8 бит
    Тип развёртки : Прогрессивная
    Бит/(Пиксели*Кадры) : 0.167
    Размер потока : 1,18 Гбайт (80%)
    Библиотека кодирования : x264 core 146 r2538 121396c
    Настройки программы : cabac=1 / ref=12 / deblock=1:-3:-3 / analyse=0x3:0x133 / me=umh / subme=11 / psy=1 / psy_rd=0.95:0.10 / mixed_ref=1 / me_range=48 / chroma_me=1 / trellis=2 / 8x8dct=1 / cqm=0 / deadzone=21,11 / fast_pskip=0 / chroma_qp_offset=-3 / threads=12 / lookahead_threads=2 / sliced_threads=0 / nr=0 / decimate=0 / interlaced=0 / bluray_compat=0 / constrained_intra=0 / bframes=9 / b_pyramid=2 / b_adapt=2 / b_bias=0 / direct=3 / weightb=1 / open_gop=0 / weightp=2 / keyint=240 / keyint_min=23 / scenecut=40 / intra_refresh=0 / rc_lookahead=40 / rc=2pass / mbtree=0 / bitrate=1753 / ratetol=1.0 / qcomp=0.60 / qpmin=0 / qpmax=69 / qpstep=4 / cplxblur=20.0 / qblur=0.5 / vbv_maxrate=50000 / vbv_bufsize=62500 / nal_hrd=none / filler=0 / ip_ratio=1.40 / pb_ratio=1.30 / aq=1:1.00
    Default : Да
    Forced : Нет

    Аудио
    Идентификатор : 2
    Формат : AC-3
    Формат/Информация : Audio Coding 3
    Расширение режима : CM (complete main)
    Параметр Endianness формата : Big
    Идентификатор кодека : A_AC3
    Продолжительность : 1 ч. 38 м.
    Вид битрейта : Постоянный
    Битрейт : 384 Кбит/сек
    Каналы : 6 каналов
    Расположение каналов : Front: L C R, Side: L R, LFE
    Частота : 48,0 КГц
    Частота кадров : 31,250 кадров/сек (1536 spf)
    Метод сжатия : С потерями
    Размер потока : 270 Мбайт (18%)
    Заголовок : iTunes Russia
    Язык : Russian
    Default : Да
    Forced : Нет
7.8 из 10
голосов: 5
/10
/10
grab777 14-05-2016, 01:31

denSKURAT | 14-05-2016, 16:22 | Статус: Оффлайн

как боевик пойдет
Информация
Посетители, находящиеся в группе Гости, не могут оставлять комментарии к данной публикации.