Панель пользователя
Регистрация

Воспользуйтесь социальными сетями для входа на https://freerutor.com

vk odnoklassniki facebook mailru yandex google
Популярное
Счетчик
Голосуй за нас
VIP на сайте
Популярное
Товары интернет магазина
загрузка...

А зори здесь тихие... (1-4 серии из 4) (2015) WEB-DLRip-AVC

А зори здесь тихие... (1-4 серии из 4) (2015) WEB-DLRip-AVC
Участники торрент обмена
Сидов Пиров Скачали
0 0 140
Характеристика
Размер Файлы
2.88 GB
Релиз группа
Поделиться раздачей
Русские сериалы
Наименование: А зори здесь тихие...
Произведено: Россия
Категория: драма, военный, история
Режиссер постановщик: Ренат Давлетьяров
В главных ролях: Пётр Фёдоров, Анастасия Микульчина, Женя Малахова, Агния Кузнецова, Софья Лебедева, Кристина Асмус, Екатерина Вилкова, Анатолий Белый, Дарья Мороз, Виктор Проскурин
Краткое описание: Май 1942 года. В самый разгар Великой Отечественной войны вдалеке от линии фронта, у забытого богом разъезда, фашисты выбрасывают десант с целью пробраться на Кировскую железную дорогу и Беломорско-Балтийский канал. Это не обычные солдаты-пехотинцы, это опытные, тренированные диверсанты, элита войск СС, «сверхлюди». А против них - старшина Васков и пять девчонок-зенитчиц. Казалось бы, бой местного значения, но на кону - стратегически важная транспортная артерия, соединяющая значимые центры страны. Смогут ли старшина и его хрупкие новобранцы предотвратить нацистскую диверсию, и какой ценой?
  • Видео данные: AVC, 1024x576 (16:9), 2144 kbps, 25 fps, 0,145 bpp
    Аудио данные: AC3, 2 ch, 192 Кбит/с
    Перевод: Оригинал
    Продолжительность: 4х ~00:45:00
  • А зори здесь тихие... (1-4 серии из 4) (2015) WEB-DLRip-AVC А зори здесь тихие... (1-4 серии из 4) (2015) WEB-DLRip-AVC А зори здесь тихие... (1-4 серии из 4) (2015) WEB-DLRip-AVC
  • Общее
    Уникальный идентификатор : 233195119098230625406341363059138106939 (0xAF6FBF0BEB52A6BEAD93AFC5FA96163B)
    Полное имя : E:\А зори здесь тихие... (2015)\A.zori.zdes.tihie.(01.seriya).2015.WEB-DLRip-AVC.by.R.G.Resident.mkv
    Формат : Matroska
    Версия формата : Version 4 / Version 2
    Размер файла : 744 Мбайт
    Длительность : 44 м.
    Общий поток : 2337 Кбит/сек
    Название фильма : А зори здесь тихие... (2015) 1 серия WEB-DLRip-AVC by R.G. Resident
    Дата кодирования : UTC 2016-05-10 05:11:49
    Программа кодирования : mkvmerge v9.1.0 ('Little Earthquakes') 64bit
    Библиотека кодирования : libebml v1.3.3 + libmatroska v1.4.4

    Видео
    Идентификатор : 1
    Формат : AVC
    Формат/Информация : Advanced Video Кодек
    Профиль формата : High@L4.1
    Параметр CABAC формата : Да
    Параметр ReFrames формата : 9 кадров
    Идентификатор кодека : V_MPEG4/ISO/AVC
    Длительность : 44 м.
    Битрейт : 2144 Кбит/сек
    Ширина : 1024 пикселя
    Высота : 576 пикселей
    Соотношение сторон : 16:9
    Режим частоты кадров : Постоянный
    Частота кадров : 25,000 кадров/сек
    Цветовое пространство : YUV
    Субдискретизация насыщенности : 4:2:0
    Битовая глубина : 8 бит
    Тип развёртки : Прогрессивная
    Бит/(Пиксели*Кадры) : 0.145
    Размер потока : 683 Мбайт (92%)
    Заголовок : -Lexx-
    Библиотека кодирования : x264 core 146 r2538 121396c
    Настройки программы : cabac=1 / ref=9 / deblock=1:-2:-2 / analyse=0x3:0x113 / me=umh / subme=11 / psy=1 / psy_rd=1.00:0.10 / mixed_ref=1 / me_range=48 / chroma_me=1 / trellis=2 / 8x8dct=1 / cqm=0 / deadzone=21,11 / fast_pskip=0 / chroma_qp_offset=-3 / threads=6 / lookahead_threads=2 / sliced_threads=0 / nr=0 / decimate=1 / interlaced=0 / bluray_compat=0 / constrained_intra=0 / bframes=9 / b_pyramid=2 / b_adapt=2 / b_bias=0 / direct=3 / weightb=1 / open_gop=0 / weightp=2 / keyint=250 / keyint_min=25 / scenecut=40 / intra_refresh=0 / rc=2pass / mbtree=0 / bitrate=2144 / ratetol=1.0 / qcomp=0.60 / qpmin=0 / qpmax=69 / qpstep=4 / cplxblur=20.0 / qblur=0.5 / ip_ratio=1.40 / pb_ratio=1.30 / aq=1:1.00
    Язык : English
    Default : Да
    Forced : Нет

    Аудио
    Идентификатор : 2
    Формат : AC-3
    Формат/Информация : Audio Coding 3
    Расширение режима : CM (complete main)
    Параметр Endianness формата : Big
    Идентификатор кодека : A_AC3
    Длительность : 44 м.
    Вид битрейта : Постоянный
    Битрейт : 192 Кбит/сек
    Каналы : 2 канала
    Расположение каналов : Front: L R
    Частота : 48,0 КГц
    Частота кадров : 31,250 кадров/сек (1536 spf)
    Метод сжатия : С потерями
    Размер потока : 61,2 Мбайт (8%)
    Заголовок : Оригинал
    Язык : Russian
    Default : Да
    Forced : Нет
7.6 из 10
голосов: 15
/10
/10
RG HDFilms 10-05-2016, 14:07

Иван Настоящий | 10-05-2016, 15:00 | Статус: Оффлайн

А смысл его делить на 4 серии? Бред

msobotka | 10-05-2016, 14:41 | Статус: Оффлайн

Не стоит это смотреть, смотрите лучше фильм Ростоцкого - там правда и там душа, а это дерьмо!
Информация
Посетители, находящиеся в группе Гости, не могут оставлять комментарии к данной публикации.